  0
SECTION
  2
HEADER
  9
$ACADVER
  1
AC1015
  9
$ACADMAINTVER
 70
     6
  9
$DWGCODEPAGE
  3
ANSI_1252
  9
$INSBASE
 10
0.0
 20
0.0
 30
0.0
  9
$EXTMIN
 10
347.8654851797119
 20
11.11481254807463
 30
0.0
  9
$EXTMAX
 10
644.865485179712
 20
221.1148125480747
 30
0.0
  9
$LIMMIN
 10
0.0
 20
0.0
  9
$LIMMAX
 10
12.0
 20
9.0
  9
$ORTHOMODE
 70
     0
  9
$REGENMODE
 70
     1
  9
$FILLMODE
 70
     1
  9
$QTEXTMODE
 70
     0
  9
$MIRRTEXT
 70
     1
  9
$LTSCALE
 40
1.0
  9
$ATTMODE
 70
     1
  9
$TEXTSIZE
 40
0.2
  9
$TRACEWID
 40
0.05
  9
$TEXTSTYLE
  7
Standard
  9
$CLAYER
  8
0
  9
$CELTYPE
  6
ByLayer
  9
$CECOLOR
 62
   256
  9
$CELTSCALE
 40
1.0
  9
$DISPSILH
 70
     0
  9
$DIMSCALE
 40
1.0
  9
$DIMASZ
 40
0.18
  9
$DIMEXO
 40
0.0625
  9
$DIMDLI
 40
0.38
  9
$DIMRND
 40
0.0
  9
$DIMDLE
 40
0.0
  9
$DIMEXE
 40
0.18
  9
$DIMTP
 40
0.0
  9
$DIMTM
 40
0.0
  9
$DIMTXT
 40
0.18
  9
$DIMCEN
 40
0.09
  9
$DIMTSZ
 40
0.0
  9
$DIMTOL
 70
     0
  9
$DIMLIM
 70
     0
  9
$DIMTIH
 70
     1
  9
$DIMTOH
 70
     1
  9
$DIMSE1
 70
     0
  9
$DIMSE2
 70
     0
  9
$DIMTAD
 70
     0
  9
$DIMZIN
 70
     0
  9
$DIMBLK
  1

  9
$DIMASO
 70
     1
  9
$DIMSHO
 70
     1
  9
$DIMPOST
  1

  9
$DIMAPOST
  1

  9
$DIMALT
 70
     0
  9
$DIMALTD
 70
     2
  9
$DIMALTF
 40
25.4
  9
$DIMLFAC
 40
1.0
  9
$DIMTOFL
 70
     0
  9
$DIMTVP
 40
0.0
  9
$DIMTIX
 70
     0
  9
$DIMSOXD
 70
     0
  9
$DIMSAH
 70
     0
  9
$DIMBLK1
  1

  9
$DIMBLK2
  1

  9
$DIMSTYLE
  2
Standard
  9
$DIMCLRD
 70
     0
  9
$DIMCLRE
 70
     0
  9
$DIMCLRT
 70
     0
  9
$DIMTFAC
 40
1.0
  9
$DIMGAP
 40
0.09
  9
$DIMJUST
 70
     0
  9
$DIMSD1
 70
     0
  9
$DIMSD2
 70
     0
  9
$DIMTOLJ
 70
     1
  9
$DIMTZIN
 70
     0
  9
$DIMALTZ
 70
     0
  9
$DIMALTTZ
 70
     0
  9
$DIMUPT
 70
     0
  9
$DIMDEC
 70
     4
  9
$DIMTDEC
 70
     4
  9
$DIMALTU
 70
     2
  9
$DIMALTTD
 70
     2
  9
$DIMTXSTY
  7
Standard
  9
$DIMAUNIT
 70
     0
  9
$DIMADEC
 70
     0
  9
$DIMALTRND
 40
0.0
  9
$DIMAZIN
 70
     0
  9
$DIMDSEP
 70
    46
  9
$DIMATFIT
 70
     3
  9
$DIMFRAC
 70
     0
  9
$DIMLDRBLK
  1

  9
$DIMLUNIT
 70
     2
  9
$DIMLWD
 70
    -2
  9
$DIMLWE
 70
    -2
  9
$DIMTMOVE
 70
     0
  9
$LUNITS
 70
     2
  9
$LUPREC
 70
     4
  9
$SKETCHINC
 40
0.1
  9
$FILLETRAD
 40
0.5
  9
$AUNITS
 70
     0
  9
$AUPREC
 70
     0
  9
$MENU
  1
.
  9
$ELEVATION
 40
0.0
  9
$PELEVATION
 40
0.0
  9
$THICKNESS
 40
0.0
  9
$LIMCHECK
 70
     0
  9
$CHAMFERA
 40
0.5
  9
$CHAMFERB
 40
0.5
  9
$CHAMFERC
 40
1.0
  9
$CHAMFERD
 40
0.0
  9
$SKPOLY
 70
     0
  9
$TDCREATE
 40
2456997.61142206
  9
$TDUCREATE
 40
2456997.569755394
  9
$TDUPDATE
 40
2456997.611422419
  9
$TDUUPDATE
 40
2456997.569755752
  9
$TDINDWG
 40
0.0000000116
  9
$TDUSRTIMER
 40
0.0000000116
  9
$USRTIMER
 70
     1
  9
$ANGBASE
 50
0.0
  9
$ANGDIR
 70
     0
  9
$PDMODE
 70
     0
  9
$PDSIZE
 40
0.0
  9
$PLINEWID
 40
0.0
  9
$SPLFRAME
 70
     0
  9
$SPLINETYPE
 70
     6
  9
$SPLINESEGS
 70
     8
  9
$HANDSEED
  5
7B0
  9
$SURFTAB1
 70
     6
  9
$SURFTAB2
 70
     6
  9
$SURFTYPE
 70
     6
  9
$SURFU
 70
     6
  9
$SURFV
 70
     6
  9
$UCSBASE
  2

  9
$UCSNAME
  2

  9
$UCSORG
 10
0.0
 20
0.0
 30
0.0
  9
$UCSXDIR
 10
1.0
 20
0.0
 30
0.0
  9
$UCSYDIR
 10
0.0
 20
1.0
 30
0.0
  9
$UCSORTHOREF
  2

  9
$UCSORTHOVIEW
 70
     0
  9
$UCSORGTOP
 10
0.0
 20
0.0
 30
0.0
  9
$UCSORGBOTTOM
 10
0.0
 20
0.0
 30
0.0
  9
$UCSORGLEFT
 10
0.0
 20
0.0
 30
0.0
  9
$UCSORGRIGHT
 10
0.0
 20
0.0
 30
0.0
  9
$UCSORGFRONT
 10
0.0
 20
0.0
 30
0.0
  9
$UCSORGBACK
 10
0.0
 20
0.0
 30
0.0
  9
$PUCSBASE
  2

  9
$PUCSNAME
  2

  9
$PUCSORG
 10
0.0
 20
0.0
 30
0.0
  9
$PUCSXDIR
 10
1.0
 20
0.0
 30
0.0
  9
$PUCSYDIR
 10
0.0
 20
1.0
 30
0.0
  9
$PUCSORTHOREF
  2

  9
$PUCSORTHOVIEW
 70
     0
  9
$PUCSORGTOP
 10
0.0
 20
0.0
 30
0.0
  9
$PUCSORGBOTTOM
 10
0.0
 20
0.0
 30
0.0
  9
$PUCSORGLEFT
 10
0.0
 20
0.0
 30
0.0
  9
$PUCSORGRIGHT
 10
0.0
 20
0.0
 30
0.0
  9
$PUCSORGFRONT
 10
0.0
 20
0.0
 30
0.0
  9
$PUCSORGBACK
 10
0.0
 20
0.0
 30
0.0
  9
$USERI1
 70
     0
  9
$USERI2
 70
     0
  9
$USERI3
 70
     0
  9
$USERI4
 70
     0
  9
$USERI5
 70
     0
  9
$USERR1
 40
18.1
  9
$USERR2
 40
0.0
  9
$USERR3
 40
0.0
  9
$USERR4
 40
0.0
  9
$USERR5
 40
0.0
  9
$WORLDVIEW
 70
     1
  9
$SHADEDGE
 70
     3
  9
$SHADEDIF
 70
    70
  9
$TILEMODE
 70
     1
  9
$MAXACTVP
 70
    64
  9
$PINSBASE
 10
0.0
 20
0.0
 30
0.0
  9
$PLIMCHECK
 70
     0
  9
$PEXTMIN
 10
1.00000000000000E+20
 20
1.00000000000000E+20
 30
1.00000000000000E+20
  9
$PEXTMAX
 10
-1.00000000000000E+20
 20
-1.00000000000000E+20
 30
-1.00000000000000E+20
  9
$PLIMMIN
 10
0.0
 20
0.0
  9
$PLIMMAX
 10
12.0
 20
9.0
  9
$UNITMODE
 70
     0
  9
$VISRETAIN
 70
     1
  9
$PLINEGEN
 70
     0
  9
$PSLTSCALE
 70
     1
  9
$TREEDEPTH
 70
  3020
  9
$CMLSTYLE
  2
Standard
  9
$CMLJUST
 70
     0
  9
$CMLSCALE
 40
1.0
  9
$PROXYGRAPHICS
 70
     1
  9
$MEASUREMENT
 70
     1
  9
$CELWEIGHT
370
    -1
  9
$ENDCAPS
280
     0
  9
$JOINSTYLE
280
     0
  9
$LWDISPLAY
290
     0
  9
$INSUNITS
 70
     4
  9
$HYPERLINKBASE
  1

  9
$STYLESHEET
  1

  9
$XEDIT
290
     1
  9
$CEPSNTYPE
380
     0
  9
$PSTYLEMODE
290
     1
  9
$FINGERPRINTGUID
  2
{173A38AB-DE07-4806-A88E-7653FF62E8CE}
  9
$VERSIONGUID
  2
{FAEB1C32-E019-11D5-929B-00C0DF256EC4}
  9
$EXTNAMES
290
     1
  9
$PSVPSCALE
 40
0.0
  9
$OLESTARTUP
290
     0
  0
ENDSEC
  0
SECTION
  2
CLASSES
  0
CLASS
  1
ACDBDICTIONARYWDFLT
  2
AcDbDictionaryWithDefault
  3
ObjectDBX Classes
 90
        0
280
     0
281
     0
  0
CLASS
  1
VISUALSTYLE
  2
AcDbVisualStyle
  3
ObjectDBX Classes
 90
     4095
280
     0
281
     0
  0
CLASS
  1
MATERIAL
  2
AcDbMaterial
  3
ObjectDBX Classes
 90
     1153
280
     0
281
     0
  0
CLASS
  1
DICTIONARYVAR
  2
AcDbDictionaryVar
  3
ObjectDBX Classes
 90
        0
280
     0
281
     0
  0
CLASS
  1
ACDBPLACEHOLDER
  2
AcDbPlaceHolder
  3
ObjectDBX Classes
 90
        0
280
     0
281
     0
  0
CLASS
  1
LAYOUT
  2
AcDbLayout
  3
ObjectDBX Classes
 90
        0
280
     0
281
     0
  0
ENDSEC
  0
SECTION
  2
TABLES
  0
TABLE
  2
VPORT
  5
8
330
0
100
AcDbSymbolTable
 70
     1
  0
VPORT
  5
29
330
8
100
AcDbSymbolTableRecord
100
AcDbViewportTableRecord
  2
*Active
 70
     0
 10
0.0
 20
0.0
 11
1.0
 21
1.0
 12
496.365485179712
 22
116.1148125480747
 13
0.0
 23
0.0
 14
0.5
 24
0.5
 15
0.5
 25
0.5
 16
0.0
 26
0.0
 36
1.0
 17
0.0
 27
0.0
 37
0.0
 40
231.0000000000001
 41
1.60267857142857
 42
50.0
 43
0.0
 44
0.0
 50
0.0
 51
0.0
 71
     0
 72
   100
 73
     1
 74
     3
 75
     0
 76
     0
 77
     0
 78
     0
281
     0
 65
     1
110
0.0
120
0.0
130
0.0
111
1.0
121
0.0
131
0.0
112
0.0
122
1.0
132
0.0
 79
     0
146
0.0
  0
ENDTAB
  0
TABLE
  2
LTYPE
  5
5
330
0
100
AcDbSymbolTable
 70
    10
  0
LTYPE
  5
14
330
5
100
AcDbSymbolTableRecord
100
AcDbLinetypeTableRecord
  2
ByBlock
 70
     0
  3

 72
    65
 73
     0
 40
0.0
  0
LTYPE
  5
15
330
5
100
AcDbSymbolTableRecord
100
AcDbLinetypeTableRecord
  2
ByLayer
 70
     0
  3

 72
    65
 73
     0
 40
0.0
  0
LTYPE
  5
16
330
5
100
AcDbSymbolTableRecord
100
AcDbLinetypeTableRecord
  2
Continuous
 70
     0
  3
Solid line
 72
    65
 73
     0
 40
0.0
  0
LTYPE
  5
3F
330
5
100
AcDbSymbolTableRecord
100
AcDbLinetypeTableRecord
  2
DASHED
 70
     0
  3
Dashed
 72
    65
 73
     2
 40
15.0
 49
7.0
 74
     0
 49
-8.0
 74
     0
  0
LTYPE
  5
40
330
5
100
AcDbSymbolTableRecord
100
AcDbLinetypeTableRecord
  2
DOTTED
 70
     0
  3
Dotted
 72
    65
 73
     2
 40
1.0
 49
0.0
 74
     0
 49
-1.0
 74
     0
  0
LTYPE
  5
41
330
5
100
AcDbSymbolTableRecord
100
AcDbLinetypeTableRecord
  2
DOT_CENTER
 70
     0
  3
Dot_Center
 72
    65
 73
     4
 40
14.0
 49
12.0
 74
     0
 49
-1.0
 74
     0
 49
0.0
 74
     0
 49
-1.0
 74
     0
  0
LTYPE
  5
42
330
5
100
AcDbSymbolTableRecord
100
AcDbLinetypeTableRecord
  2
LONG_DASHED
 70
     0
  3
Long_Dashed
 72
    65
 73
     2
 40
15.0
 49
10.0
 74
     0
 49
-5.0
 74
     0
  0
LTYPE
  5
43
330
5
100
AcDbSymbolTableRecord
100
AcDbLinetypeTableRecord
  2
DASH_CENTER
 70
     0
  3
Dash_Center
 72
    65
 73
     4
 40
14.0
 49
11.0
 74
     0
 49
-1.0
 74
     0
 49
1.0
 74
     0
 49
-1.0
 74
     0
  0
LTYPE
  5
44
330
5
100
AcDbSymbolTableRecord
100
AcDbLinetypeTableRecord
  2
PHANTOM
 70
     0
  3
Phantom
 72
    65
 73
     6
 40
13.0
 49
10.0
 74
     0
 49
-1.0
 74
     0
 49
0.0
 74
     0
 49
-1.0
 74
     0
 49
0.0
 74
     0
 49
-1.0
 74
     0
  0
LTYPE
  5
45
330
5
100
AcDbSymbolTableRecord
100
AcDbLinetypeTableRecord
  2
CENTER_DASH_DASH
 70
     0
  3
Center_Dash_Dash
 72
    65
 73
     6
 40
14.0
 49
9.0
 74
     0
 49
-1.0
 74
     0
 49
1.0
 74
     0
 49
-1.0
 74
     0
 49
1.0
 74
     0
 49
-1.0
 74
     0
  0
LTYPE
  5
46
330
5
100
AcDbSymbolTableRecord
100
AcDbLinetypeTableRecord
  2
CHAIN
 70
     0
  3
CHAIN
 72
    65
 73
     4
 40
4.0
 49
1.0
 74
     0
 49
-1.0
 74
     0
 49
1.0
 74
     0
 49
-1.0
 74
     0
  0
LTYPE
  5
47
330
5
100
AcDbSymbolTableRecord
100
AcDbLinetypeTableRecord
  2
DASHED_SPACE
 70
     0
  3
DASHED_SPACE
 72
    65
 73
     2
 40
2.0
 49
1.0
 74
     0
 49
-1.0
 74
     0
  0
ENDTAB
  0
TABLE
  2
LAYER
  5
2
330
0
100
AcDbSymbolTable
 70
     8
  0
LAYER
  5
10
330
2
100
AcDbSymbolTableRecord
100
AcDbLayerTableRecord
  2
0
 70
     0
 62
     7
  6
Continuous
370
    -3
390
F
  0
LAYER
  5
48
330
2
100
AcDbSymbolTableRecord
100
AcDbLayerTableRecord
  2
1
 70
     0
 62
     7
  6
Continuous
370
    -3
390
F
  0
LAYER
  5
49
330
2
100
AcDbSymbolTableRecord
100
AcDbLayerTableRecord
  2
Bemaßungen_TC_020513_DIN_
 70
     0
 62
     7
  6
Continuous
370
    -3
390
F
  0
LAYER
  5
4A
330
2
100
AcDbSymbolTableRecord
100
AcDbLayerTableRecord
  2
Mittellinie_TC_020513_DIN_
 70
     0
 62
     7
  6
Continuous
370
    -3
390
F
  0
LAYER
  5
4B
330
2
100
AcDbSymbolTableRecord
100
AcDbLayerTableRecord
  2
Mittelpunktmarkierung_TC_020513_DIN_
 70
     0
 62
     7
  6
Continuous
370
    -3
390
F
  0
LAYER
  5
4C
330
2
100
AcDbSymbolTableRecord
100
AcDbLayerTableRecord
  2
Sichtbare_Kanten_TC_020513_DIN_
 70
     0
 62
     7
  6
Continuous
370
    -3
390
F
  0
LAYER
  5
4D
330
2
100
AcDbSymbolTableRecord
100
AcDbLayerTableRecord
  2
Stich_1-Linien_TC_020513_DIN_
 70
     0
 62
     7
  6
Continuous
370
    -3
390
F
  0
LAYER
  5
4E
330
2
100
AcDbSymbolTableRecord
100
AcDbLayerTableRecord
  2
Symbole_TC_020513_DIN_
 70
     0
 62
     7
  6
Continuous
370
    -3
390
F
  0
ENDTAB
  0
TABLE
  2
STYLE
  5
3
330
0
100
AcDbSymbolTable
 70
     4
  0
STYLE
  5
11
330
3
100
AcDbSymbolTableRecord
100
AcDbTextStyleTableRecord
  2
Standard
 70
     0
 40
0.0
 41
1.0
 50
0.0
 71
     0
 42
0.2
  3
txt
  4

  0
STYLE
  5
A3
330
3
100
AcDbSymbolTableRecord
100
AcDbTextStyleTableRecord
  2
CONVERTER_11
 70
     0
 40
0.0
 41
1.2
 50
0.0
 71
     0
 42
0.2
  3
ARIAL.TTF
  4

  0
STYLE
  5
A8
330
3
100
AcDbSymbolTableRecord
100
AcDbTextStyleTableRecord
  2
CONVERTER_12
 70
     0
 40
0.0
 41
1.38
 50
0.0
 71
     0
 42
0.2
  3
ARIAL.TTF
  4

  0
STYLE
  5
727
330
3
100
AcDbSymbolTableRecord
100
AcDbTextStyleTableRecord
  2
CONVERTER_13
 70
     0
 40
0.0
 41
0.75
 50
0.0
 71
     0
 42
0.2
  3
txt.shx
  4

  0
ENDTAB
  0
TABLE
  2
VIEW
  5
6
330
0
100
AcDbSymbolTable
 70
     0
  0
ENDTAB
  0
TABLE
  2
UCS
  5
7
330
0
100
AcDbSymbolTable
 70
     0
  0
ENDTAB
  0
TABLE
  2
APPID
  5
9
330
0
100
AcDbSymbolTable
 70
     1
  0
APPID
  5
12
330
9
100
AcDbSymbolTableRecord
100
AcDbRegAppTableRecord
  2
ACAD
 70
     0
  0
ENDTAB
  0
TABLE
  2
DIMSTYLE
  5
A
330
0
100
AcDbSymbolTable
 70
    10
100
AcDbDimStyleTable
  0
DIMSTYLE
105
27
330
A
100
AcDbSymbolTableRecord
100
AcDbDimStyleTableRecord
  2
Standard
 70
     0
178
     0
340
11
  0
DIMSTYLE
105
72B
102
{ACAD_REACTORS
330
72C
102
}
330
A
100
AcDbSymbolTableRecord
100
AcDbDimStyleTableRecord
  2
ME10_DIM_10
 70
     0
 41
2.5
 42
1.0
 44
2.0
 73
     0
 74
     0
 77
     1
 78
    12
140
3.5
147
0.8
172
     1
173
     1
174
     1
175
     1
176
     7
177
     7
271
     2
178
     7
271
     2
340
727
  0
DIMSTYLE
105
736
102
{ACAD_REACTORS
330
737
102
}
330
A
100
AcDbSymbolTableRecord
100
AcDbDimStyleTableRecord
  2
ME10_DIM_11
 70
     0
 41
2.5
 42
1.0
 44
2.0
 73
     0
 74
     0
 77
     1
 78
    12
140
3.5
147
0.8
172
     1
173
     1
174
     1
175
     1
176
     7
177
     7
271
     0
178
     7
271
     0
340
727
  0
DIMSTYLE
105
741
102
{ACAD_REACTORS
330
742
102
}
330
A
100
AcDbSymbolTableRecord
100
AcDbDimStyleTableRecord
  2
ME10_DIM_12
 70
     0
 41
2.5
 42
1.0
 44
2.0
 73
     0
 74
     0
 77
     1
 78
    12
140
3.5
147
0.8
172
     1
173
     1
174
     1
175
     1
176
     7
177
     7
271
     2
178
     7
271
     2
340
727
  0
DIMSTYLE
105
74C
102
{ACAD_REACTORS
330
74D
102
}
330
A
100
AcDbSymbolTableRecord
100
AcDbDimStyleTableRecord
  2
ME10_DIM_13
 70
     0
 41
2.5
 42
1.0
 44
2.0
 73
     0
 74
     0
 77
     1
 78
    12
140
3.5
147
0.8
172
     1
173
     1
174
     1
175
     1
176
     7
177
     7
271
     2
178
     7
271
     2
340
727
  0
DIMSTYLE
105
757
102
{ACAD_REACTORS
330
758
102
}
330
A
100
AcDbSymbolTableRecord
100
AcDbDimStyleTableRecord
  2
ME10_DIM_14
 70
     0
 41
2.5
 42
1.0
 44
2.0
 73
     0
 74
     0
 77
     1
 78
    12
140
3.5
147
0.8
172
     1
173
     1
174
     1
175
     1
176
     7
177
     7
271
     2
178
     7
271
     2
340
727
  0
DIMSTYLE
105
762
102
{ACAD_REACTORS
330
763
102
}
330
A
100
AcDbSymbolTableRecord
100
AcDbDimStyleTableRecord
  2
ME10_DIM_15
 70
     0
 41
2.5
 42
1.0
 44
2.0
 73
     0
 74
     0
 77
     1
 78
    12
140
3.5
147
0.8
172
     1
173
     1
174
     1
175
     1
176
     7
177
     7
271
     2
178
     7
271
     2
340
727
  0
DIMSTYLE
105
76D
102
{ACAD_REACTORS
330
76E
102
}
330
A
100
AcDbSymbolTableRecord
100
AcDbDimStyleTableRecord
  2
ME10_DIM_16
 70
     0
 41
2.5
 42
1.0
 44
2.0
 73
     0
 74
     0
 77
     1
 78
    12
140
3.5
147
0.8
172
     1
173
     1
174
     1
175
     1
176
     7
177
     7
271
     2
178
     7
271
     2
340
727
  0
DIMSTYLE
105
778
102
{ACAD_REACTORS
330
779
102
}
330
A
100
AcDbSymbolTableRecord
100
AcDbDimStyleTableRecord
  2
ME10_DIM_17
 70
     0
 41
2.5
 42
1.0
 44
2.0
 73
     0
 74
     0
 77
     1
 78
    12
140
3.5
147
0.8
172
     1
173
     1
174
     1
175
     1
176
     7
177
     7
271
     2
178
     7
271
     2
340
727
  0
DIMSTYLE
105
783
102
{ACAD_REACTORS
330
784
102
}
330
A
100
AcDbSymbolTableRecord
100
AcDbDimStyleTableRecord
  2
ME10_DIM_18
 70
     0
 41
2.5
 42
1.0
 44
2.0
 73
     0
 74
     0
 77
     1
 78
    12
140
3.5
147
0.8
172
     1
173
     1
174
     1
175
     1
176
     7
177
     7
271
     2
178
     7
271
     2
340
727
  0
ENDTAB
  0
TABLE
  2
BLOCK_RECORD
  5
1
330
0
100
AcDbSymbolTable
 70
    12
  0
BLOCK_RECORD
  5
1F
330
1
100
AcDbSymbolTableRecord
100
AcDbBlockTableRecord
  2
*Model_Space
340
22
  0
BLOCK_RECORD
  5
1B
330
1
100
AcDbSymbolTableRecord
100
AcDbBlockTableRecord
  2
*Paper_Space
340
1E
  0
BLOCK_RECORD
  5
23
330
1
100
AcDbSymbolTableRecord
100
AcDbBlockTableRecord
  2
*Paper_Space0
340
26
  0
BLOCK_RECORD
  5
4F
330
1
100
AcDbSymbolTableRecord
100
AcDbBlockTableRecord
  2
_formato_A4
340
0
102
{BLKREFS
331
53
102
}
  0
BLOCK_RECORD
  5
52
330
1
100
AcDbSymbolTableRecord
100
AcDbBlockTableRecord
  2
A4_oriz
340
0
102
{BLKREFS
331
56
102
}
  0
BLOCK_RECORD
  5
721
330
1
100
AcDbSymbolTableRecord
100
AcDbBlockTableRecord
  2
*D3
340
0
  0
BLOCK_RECORD
  5
72D
330
1
100
AcDbSymbolTableRecord
100
AcDbBlockTableRecord
  2
*D4
340
0
  0
BLOCK_RECORD
  5
738
330
1
100
AcDbSymbolTableRecord
100
AcDbBlockTableRecord
  2
*D5
340
0
  0
BLOCK_RECORD
  5
743
330
1
100
AcDbSymbolTableRecord
100
AcDbBlockTableRecord
  2
*D6
340
0
  0
BLOCK_RECORD
  5
74E
330
1
100
AcDbSymbolTableRecord
100
AcDbBlockTableRecord
  2
*D7
340
0
  0
BLOCK_RECORD
  5
759
330
1
100
AcDbSymbolTableRecord
100
AcDbBlockTableRecord
  2
*D8
340
0
  0
BLOCK_RECORD
  5
764
330
1
100
AcDbSymbolTableRecord
100
AcDbBlockTableRecord
  2
*D9
340
0
  0
BLOCK_RECORD
  5
76F
330
1
100
AcDbSymbolTableRecord
100
AcDbBlockTableRecord
  2
*D10
340
0
  0
BLOCK_RECORD
  5
77A
330
1
100
AcDbSymbolTableRecord
100
AcDbBlockTableRecord
  2
*D11
340
0
  0
ENDTAB
  0
ENDSEC
  0
SECTION
  2
BLOCKS
  0
BLOCK
  5
20
330
1F
100
AcDbEntity
  8
0
100
AcDbBlockBegin
  2
*Model_Space
 70
     0
 10
0.0
 20
0.0
 30
0.0
  3
*Model_Space
  1

  0
ENDBLK
  5
21
330
1F
100
AcDbEntity
  8
0
100
AcDbBlockEnd
  0
BLOCK
  5
1C
330
1B
100
AcDbEntity
 67
     1
  8
0
100
AcDbBlockBegin
  2
*Paper_Space
 70
     0
 10
0.0
 20
0.0
 30
0.0
  3
*Paper_Space
  1

  0
ENDBLK
  5
1D
330
1B
100
AcDbEntity
 67
     1
  8
0
100
AcDbBlockEnd
  0
BLOCK
  5
24
330
23
100
AcDbEntity
  8
0
100
AcDbBlockBegin
  2
*Paper_Space0
 70
     0
 10
0.0
 20
0.0
 30
0.0
  3
*Paper_Space0
  1

  0
ENDBLK
  5
25
330
23
100
AcDbEntity
  8
0
100
AcDbBlockEnd
  0
BLOCK
  5
50
330
4F
100
AcDbEntity
  8
0
100
AcDbBlockBegin
  2
_formato_A4
 70
     0
 10
644.865485179712
 20
11.11481254807463
 30
0.0
  3
_formato_A4
  1

  0
LINE
  5
57
330
4F
100
AcDbEntity
  8
1
  6
Continuous
 62
     7
100
AcDbLine
 10
455.865485179712
 20
16.11481254807451
 30
0.0
 11
455.865485179712
 21
51.11481254807462
 31
0.0
  0
LINE
  5
58
330
4F
100
AcDbEntity
  8
1
  6
Continuous
 62
     7
100
AcDbLine
 10
455.865485179712
 20
31.11481254807463
 30
0.0
 11
639.865485179712
 21
31.11481254807463
 31
0.0
  0
LINE
  5
59
330
4F
100
AcDbEntity
  8
1
  6
Continuous
 62
     7
100
AcDbLine
 10
352.8654851797118
 20
200.1148125480746
 30
0.0
 11
352.8654851797118
 21
16.11481254807463
 31
0.0
  0
LINE
  5
5A
330
4F
100
AcDbEntity
  8
1
  6
Continuous
 62
     7
100
AcDbLine
 10
480.8654851797121
 20
46.11481254807462
 30
0.0
 11
480.8654851797121
 21
51.11481254807462
 31
0.0
  0
LINE
  5
5B
330
4F
100
AcDbEntity
  8
1
  6
Continuous
 62
     7
100
AcDbLine
 10
462.865485179712
 20
46.11481254807462
 30
0.0
 11
462.865485179712
 21
51.11481254807462
 31
0.0
  0
LINE
  5
5C
330
4F
100
AcDbEntity
  8
1
  6
Continuous
 62
     7
100
AcDbLine
 10
455.865485179712
 20
51.11481254807462
 30
0.0
 11
639.865485179712
 21
51.11481254807462
 31
0.0
  0
LINE
  5
5D
330
4F
100
AcDbEntity
  8
1
  6
Continuous
 62
     7
100
AcDbLine
 10
480.8654851797121
 20
41.11481254807462
 30
0.0
 11
480.8654851797121
 21
46.11481254807462
 31
0.0
  0
LINE
  5
5E
330
4F
100
AcDbEntity
  8
1
  6
Continuous
 62
     7
100
AcDbLine
 10
462.865485179712
 20
41.11481254807462
 30
0.0
 11
462.865485179712
 21
46.11481254807462
 31
0.0
  0
LINE
  5
5F
330
4F
100
AcDbEntity
  8
1
  6
Continuous
 62
     7
100
AcDbLine
 10
455.865485179712
 20
46.11481254807462
 30
0.0
 11
639.865485179712
 21
46.11481254807462
 31
0.0
  0
LINE
  5
60
330
4F
100
AcDbEntity
  8
1
  6
Continuous
 62
     7
100
AcDbLine
 10
480.8654851797121
 20
36.11481254807462
 30
0.0
 11
480.8654851797121
 21
41.11481254807462
 31
0.0
  0
LINE
  5
61
330
4F
100
AcDbEntity
  8
1
  6
Continuous
 62
     7
100
AcDbLine
 10
462.865485179712
 20
36.11481254807462
 30
0.0
 11
462.865485179712
 21
41.11481254807462
 31
0.0
  0
LINE
  5
62
330
4F
100
AcDbEntity
  8
1
  6
Continuous
 62
     7
100
AcDbLine
 10
455.865485179712
 20
41.11481254807462
 30
0.0
 11
639.865485179712
 21
41.11481254807462
 31
0.0
  0
LINE
  5
63
330
4F
100
AcDbEntity
  8
1
  6
Continuous
 62
     7
100
AcDbLine
 10
480.8654851797121
 20
31.11481254807463
 30
0.0
 11
480.8654851797121
 21
36.11481254807462
 31
0.0
  0
LINE
  5
64
330
4F
100
AcDbEntity
  8
1
  6
Continuous
 62
     7
100
AcDbLine
 10
462.865485179712
 20
31.11481254807463
 30
0.0
 11
462.865485179712
 21
36.11481254807462
 31
0.0
  0
LINE
  5
65
330
4F
100
AcDbEntity
  8
1
  6
Continuous
 62
     7
100
AcDbLine
 10
455.865485179712
 20
36.11481254807462
 30
0.0
 11
639.865485179712
 21
36.11481254807462
 31
0.0
  0
LINE
  5
66
102
{ACAD_REACTORS
330
AE
102
}
330
4F
100
AcDbEntity
  8
1
  6
Continuous
 62
     7
100
AcDbLine
 10
630.7083600196178
 20
21.67281462845496
 30
0.0
 11
629.3750266862845
 21
20.90358385922436
 31
0.0
  0
LINE
  5
67
102
{ACAD_REACTORS
330
AE
102
}
330
4F
100
AcDbEntity
  8
1
  6
Continuous
 62
     7
100
AcDbLine
 10
629.5417858684547
 20
21.76944908072257
 30
0.0
 11
630.3752117172914
 21
22.25027168582087
 31
0.0
  0
LINE
  5
68
102
{ACAD_REACTORS
330
AE
102
}
330
4F
100
AcDbEntity
  8
1
  6
Continuous
 62
     7
100
AcDbLine
 10
629.5417858684547
 20
23.28147921474126
 30
0.0
 11
629.5417858684547
 21
21.76944908072257
 31
0.0
  0
LINE
  5
69
102
{ACAD_REACTORS
330
AE
102
}
330
4F
100
AcDbEntity
  8
1
  6
Continuous
 62
     7
100
AcDbLine
 10
630.5417858684547
 20
23.28147921474126
 30
0.0
 11
629.5417858684547
 21
23.28147921474126
 31
0.0
  0
LINE
  5
6A
102
{ACAD_REACTORS
330
AE
102
}
330
4F
100
AcDbEntity
  8
1
  6
Continuous
 62
     7
100
AcDbLine
 10
629.5417858684547
 20
23.94814588140789
 30
0.0
 11
630.5417858684547
 21
23.94814588140789
 31
0.0
  0
LINE
  5
6B
102
{ACAD_REACTORS
330
AE
102
}
330
4F
100
AcDbEntity
  8
1
  6
Continuous
 62
     7
100
AcDbLine
 10
629.5417858684547
 20
25.46017601542658
 30
0.0
 11
629.5417858684547
 21
23.94814588140789
 31
0.0
  0
LINE
  5
6C
102
{ACAD_REACTORS
330
AE
102
}
330
4F
100
AcDbEntity
  8
1
  6
Continuous
 62
     7
100
AcDbLine
 10
630.3752117172914
 20
24.97935341032839
 30
0.0
 11
629.5417858684547
 21
25.46017601542658
 31
0.0
  0
LINE
  5
6D
102
{ACAD_REACTORS
330
AE
102
}
330
4F
100
AcDbEntity
  8
1
  6
Continuous
 62
     7
100
AcDbLine
 10
629.3750266862845
 20
26.3260412369249
 30
0.0
 11
630.7083600196178
 21
25.55681046769407
 31
0.0
  0
LINE
  5
6E
102
{ACAD_REACTORS
330
AF
102
}
330
4F
100
AcDbEntity
  8
1
  6
Continuous
 62
     7
100
AcDbLine
 10
622.2084525351213
 20
21.96154315713786
 30
0.0
 11
622.2084525351213
 21
25.26808193901129
 31
0.0
  0
LINE
  5
6F
102
{ACAD_REACTORS
330
AF
102
}
330
4F
100
AcDbEntity
  8
1
  6
Continuous
 62
     7
100
AcDbLine
 10
622.8751192017879
 20
22.15406446533793
 30
0.0
 11
622.8751192017879
 21
21.96154315713786
 31
0.0
  0
LINE
  5
70
102
{ACAD_REACTORS
330
AF
102
}
330
4F
100
AcDbEntity
  8
1
  6
Continuous
 62
     7
100
AcDbLine
 10
622.8751192017879
 20
25.26808193901129
 30
0.0
 11
622.8751192017879
 21
22.15406446533793
 31
0.0
  0
LINE
  5
71
102
{ACAD_REACTORS
330
B0
102
}
330
4F
100
AcDbEntity
  8
1
  6
Continuous
 62
     7
100
AcDbLine
 10
626.0418783839581
 20
19.55743001307043
 30
0.0
 11
623.875304232795
 21
20.80737663874153
 31
0.0
  0
LINE
  5
72
102
{ACAD_REACTORS
330
B0
102
}
330
4F
100
AcDbEntity
  8
1
  6
Continuous
 62
     7
100
AcDbLine
 10
624.2084525351213
 20
21.38483369610733
 30
0.0
 11
626.3750266862845
 21
20.13488707043623
 31
0.0
  0
LINE
  5
73
102
{ACAD_REACTORS
330
B0
102
}
330
4F
100
AcDbEntity
  8
1
  6
Continuous
 62
     7
100
AcDbLine
 10
624.2084525351213
 20
26.037312708242
 30
0.0
 11
624.2084525351213
 21
21.38483369610733
 31
0.0
  0
LINE
  5
74
102
{ACAD_REACTORS
330
B0
102
}
330
4F
100
AcDbEntity
  8
1
  6
Continuous
 62
     7
100
AcDbLine
 10
623.5417858684547
 20
21.38483369610721
 30
0.0
 11
623.5417858684547
 21
26.037312708242
 31
0.0
  0
LINE
  5
75
102
{ACAD_REACTORS
330
B1
102
}
330
4F
100
AcDbEntity
  8
1
  6
Continuous
 62
     7
100
AcDbLine
 10
627.7140188514979
 20
26.97851296634692
 30
0.0
 11
626.5417858684547
 21
24.94814588140789
 31
0.0
  0
LINE
  5
76
102
{ACAD_REACTORS
330
B1
102
}
330
4F
100
AcDbEntity
  8
1
  6
Continuous
 62
     7
100
AcDbLine
 10
628.2084525351213
 20
20.42308161867642
 30
0.0
 11
628.2084525351213
 21
26.8460298601092
 31
0.0
  0
LINE
  5
77
102
{ACAD_REACTORS
330
B1
102
}
330
4F
100
AcDbEntity
  8
1
  6
Continuous
 62
     7
100
AcDbLine
 10
627.5417858684547
 20
23.61481254807463
 30
0.0
 11
627.5417858684547
 21
20.42308161867642
 31
0.0
  0
LINE
  5
78
102
{ACAD_REACTORS
330
B1
102
}
330
4F
100
AcDbEntity
  8
1
  6
Continuous
 62
     7
100
AcDbLine
 10
625.5417858684547
 20
21.96239762070754
 30
0.0
 11
625.5417858684547
 21
23.61481254807463
 31
0.0
  0
LINE
  5
79
102
{ACAD_REACTORS
330
B1
102
}
330
4F
100
AcDbEntity
  8
1
  6
Continuous
 62
     7
100
AcDbLine
 10
624.8751192017879
 20
23.61481254807463
 30
0.0
 11
624.8751192017879
 21
21.96239762070754
 31
0.0
  0
LINE
  5
7A
102
{ACAD_REACTORS
330
B1
102
}
330
4F
100
AcDbEntity
  8
1
  6
Continuous
 62
     7
100
AcDbLine
 10
625.3695528854114
 20
26.97851296634692
 30
0.0
 11
626.5417858684547
 21
24.94814588140789
 31
0.0
  0
LINE
  5
7B
102
{ACAD_REACTORS
330
B1
102
}
330
4F
100
AcDbEntity
  8
1
  6
Continuous
 62
     7
100
AcDbLine
 10
624.8751192017879
 20
23.61481254807463
 30
0.0
 11
624.8751192017879
 21
26.8460298601092
 31
0.0
  0
LINE
  5
7C
330
4F
100
AcDbEntity
  8
1
  6
Continuous
 62
     7
100
AcDbLine
 10
626.5417858684547
 20
18.61481254807463
 30
0.0
 11
618.1253505933131
 21
23.47044828373318
 31
0.0
  0
LINE
  5
7D
330
4F
100
AcDbEntity
  8
1
  6
Continuous
 62
     7
100
AcDbLine
 10
634.9582211435961
 20
23.47044828373318
 30
0.0
 11
626.5417858684547
 21
18.61481254807463
 31
0.0
  0
LINE
  5
7E
330
4F
100
AcDbEntity
  8
1
  6
Continuous
 62
     7
100
AcDbLine
 10
626.5417858684547
 20
28.61481254807463
 30
0.0
 11
634.9582211435961
 21
23.75917681241596
 31
0.0
  0
LINE
  5
7F
330
4F
100
AcDbEntity
  8
1
  6
Continuous
 62
     7
100
AcDbLine
 10
618.1253505933131
 20
23.75917681241596
 30
0.0
 11
626.5417858684547
 21
28.61481254807463
 31
0.0
  0
LINE
  5
80
102
{ACAD_REACTORS
330
B1
102
}
330
4F
100
AcDbEntity
  8
1
  6
Continuous
 62
     7
100
AcDbLine
 10
625.5417858684547
 20
25.34686335564347
 30
0.0
 11
625.5417858684547
 21
23.61481254807463
 31
0.0
  0
LINE
  5
81
102
{ACAD_REACTORS
330
B1
102
}
330
4F
100
AcDbEntity
  8
1
  6
Continuous
 62
     7
100
AcDbLine
 10
626.3974483011572
 20
23.86481254807463
 30
0.0
 11
625.5417858684547
 21
25.34686335564347
 31
0.0
  0
LINE
  5
82
102
{ACAD_REACTORS
330
B1
102
}
330
4F
100
AcDbEntity
  8
1
  6
Continuous
 62
     7
100
AcDbLine
 10
627.5417858684547
 20
25.34686335564347
 30
0.0
 11
626.686123435752
 21
23.86481254807463
 31
0.0
  0
LINE
  5
83
102
{ACAD_REACTORS
330
B1
102
}
330
4F
100
AcDbEntity
  8
1
  6
Continuous
 62
     7
100
AcDbLine
 10
627.5417858684547
 20
23.61481254807463
 30
0.0
 11
627.5417858684547
 21
25.34686335564347
 31
0.0
  0
LINE
  5
84
102
{ACAD_REACTORS
330
AE
102
}
330
4F
100
AcDbEntity
  8
1
  6
Continuous
 62
     7
100
AcDbLine
 10
628.875119201788
 20
21.19231238790726
 30
0.0
 11
628.875119201788
 21
26.037312708242
 31
0.0
  0
LINE
  5
85
330
4F
100
AcDbEntity
  8
1
  6
Continuous
 62
     7
100
AcDbLine
 10
639.865485179712
 20
200.1148125480746
 30
0.0
 11
352.8654851797118
 21
200.1148125480746
 31
0.0
  0
LINE
  5
86
330
4F
100
AcDbEntity
  8
1
  6
Continuous
 62
     7
100
AcDbLine
 10
639.865485179712
 20
16.11481254807463
 30
0.0
 11
639.865485179712
 21
200.1148125480746
 31
0.0
  0
LINE
  5
87
330
4F
100
AcDbEntity
  8
1
  6
Continuous
 62
     7
100
AcDbLine
 10
352.8654851797118
 20
16.11481254807463
 30
0.0
 11
639.865485179712
 21
16.11481254807463
 31
0.0
  0
LINE
  5
88
330
4F
100
AcDbEntity
  8
1
  6
Continuous
 62
     7
100
AcDbLine
 10
644.865485179712
 20
11.11481254807463
 30
0.0
 11
644.865485179712
 21
221.1148125480747
 31
0.0
  0
LINE
  5
89
330
4F
100
AcDbEntity
  8
1
  6
Continuous
 62
     7
100
AcDbLine
 10
644.865485179712
 20
221.1148125480747
 30
0.0
 11
347.8654851797119
 21
221.1148125480747
 31
0.0
  0
LINE
  5
8A
330
4F
100
AcDbEntity
  8
1
  6
Continuous
 62
     7
100
AcDbLine
 10
347.8654851797119
 20
221.1148125480747
 30
0.0
 11
347.8654851797119
 21
11.11481254807463
 31
0.0
  0
LINE
  5
8B
330
4F
100
AcDbEntity
  8
1
  6
Continuous
 62
     7
100
AcDbLine
 10
347.8654851797119
 20
11.11481254807463
 30
0.0
 11
644.865485179712
 21
11.11481254807463
 31
0.0
  0
LINE
  5
8C
330
4F
100
AcDbEntity
  8
1
  6
Continuous
 62
     7
100
AcDbLine
 10
496.3654851797116
 20
221.1148125480747
 30
0.0
 11
496.3654851797116
 21
206.1148125480747
 31
0.0
  0
LINE
  5
8D
330
4F
100
AcDbEntity
  8
1
  6
Continuous
 62
     7
100
AcDbLine
 10
485.865485179712
 20
31.11481254807463
 30
0.0
 11
485.865485179712
 21
16.11481254807463
 31
0.0
  0
LINE
  5
8E
330
4F
100
AcDbEntity
  8
1
  6
Continuous
 62
     7
100
AcDbLine
 10
613.2180865571974
 20
31.11481254807463
 30
0.0
 11
613.2180865571974
 21
16.11481254807463
 31
0.0
  0
LINE
  5
8F
330
4F
100
AcDbEntity
  8
1
  6
Continuous
 62
     7
100
AcDbLine
 10
595.865485179712
 20
31.11481254807463
 30
0.0
 11
595.865485179712
 21
16.11481254807463
 31
0.0
  0
LINE
  5
90
330
4F
100
AcDbEntity
  8
1
  6
Continuous
 62
     7
100
AcDbLine
 10
455.865485179712
 20
26.11481254807452
 30
0.0
 11
485.865485179712
 21
26.11481254807452
 31
0.0
  0
LINE
  5
91
330
4F
100
AcDbEntity
  8
1
  6
Continuous
 62
     7
100
AcDbLine
 10
455.865485179712
 20
21.11481254807449
 30
0.0
 11
485.865485179712
 21
21.11481254807449
 31
0.0
  0
ARC
  5
92
102
{ACAD_REACTORS
330
AE
102
}
330
4F
100
AcDbEntity
  8
1
  6
Continuous
 62
     7
100
AcDbCircle
 10
630.5417858684547
 20
21.96154315713786
 30
0.0
 40
0.3333333333333172
100
AcDbArc
 50
299.9816393688334
 51
119.9816393688409
  0
ARC
  5
93
102
{ACAD_REACTORS
330
AE
102
}
330
4F
100
AcDbEntity
  8
1
  6
Continuous
 62
     7
100
AcDbCircle
 10
630.5417858684547
 20
23.61481254807463
 30
0.0
 40
0.3333333333333712
100
AcDbArc
 50
270.0
 51
90.0
  0
ARC
  5
94
102
{ACAD_REACTORS
330
AE
102
}
330
4F
100
AcDbEntity
  8
1
  6
Continuous
 62
     7
100
AcDbCircle
 10
630.5417858684547
 20
25.26808193901129
 30
0.0
 40
0.333333333333374
100
AcDbArc
 50
240.0183606311496
 51
60.01836063115653
  0
ARC
  5
95
102
{ACAD_REACTORS
330
AF
102
}
330
4F
100
AcDbEntity
  8
1
  6
Continuous
 62
     7
100
AcDbCircle
 10
622.5417858684547
 20
21.96154315713786
 30
0.0
 40
0.3333333333333712
100
AcDbArc
 50
180.0
 51
0.0
  0
ARC
  5
96
102
{ACAD_REACTORS
330
AF
102
}
330
4F
100
AcDbEntity
  8
1
  6
Continuous
 62
     7
100
AcDbCircle
 10
622.5417858684547
 20
25.26808193901129
 30
0.0
 40
0.3333333333332575
100
AcDbArc
 50
0.0
 51
180.0
  0
ARC
  5
97
102
{ACAD_REACTORS
330
B0
102
}
330
4F
100
AcDbEntity
  8
1
  6
Continuous
 62
     7
100
AcDbCircle
 10
626.2084525351213
 20
19.84615854175333
 30
0.0
 40
0.333333333333374
100
AcDbArc
 50
240.0183606311496
 51
60.01836063114968
  0
ARC
  5
98
102
{ACAD_REACTORS
330
B0
102
}
330
4F
100
AcDbEntity
  8
1
  6
Continuous
 62
     7
100
AcDbCircle
 10
623.8751192017879
 20
26.037312708242
 30
0.0
 40
0.3333333333333712
100
AcDbArc
 50
0.0
 51
180.0
  0
ARC
  5
99
102
{ACAD_REACTORS
330
B1
102
}
330
4F
100
AcDbEntity
  8
1
  6
Continuous
 62
     7
100
AcDbCircle
 10
627.943486322646
 20
26.8460298601092
 30
0.0
 40
0.2649662124753149
100
AcDbArc
 50
0.0
 51
149.999999999975
  0
ARC
  5
9A
102
{ACAD_REACTORS
330
B1
102
}
330
4F
100
AcDbEntity
  8
1
  6
Continuous
 62
     7
100
AcDbCircle
 10
627.875119201788
 20
20.42308161867642
 30
0.0
 40
0.3333333333333712
100
AcDbArc
 50
180.0
 51
0.0
  0
ARC
  5
9B
102
{ACAD_REACTORS
330
B1
102
}
330
4F
100
AcDbEntity
  8
1
  6
Continuous
 62
     7
100
AcDbCircle
 10
625.2084525351213
 20
21.96239762070754
 30
0.0
 40
0.3333333333333712
100
AcDbArc
 50
180.0
 51
0.0
  0
ARC
  5
9C
102
{ACAD_REACTORS
330
B1
102
}
330
4F
100
AcDbEntity
  8
1
  6
Continuous
 62
     7
100
AcDbCircle
 10
625.1400854142632
 20
26.8460298601092
 30
0.0
 40
0.2649662124753337
100
AcDbArc
 50
30.00000000001274
 51
180.0
  0
ARC
  5
9D
102
{ACAD_REACTORS
330
AE
102
}
330
4F
100
AcDbEntity
  8
1
  6
Continuous
 62
     7
100
AcDbCircle
 10
629.2084525351213
 20
21.19231238790726
 30
0.0
 40
0.3333333333332575
100
AcDbArc
 50
180.0
 51
299.98163936885
  0
ARC
  5
9E
102
{ACAD_REACTORS
330
AE
102
}
330
4F
100
AcDbEntity
  8
1
  6
Continuous
 62
     7
100
AcDbCircle
 10
629.2084525351213
 20
26.037312708242
 30
0.0
 40
0.3333333333333771
100
AcDbArc
 50
60.01836063114997
 51
180.0
  0
ARC
  5
9F
330
4F
100
AcDbEntity
  8
1
  6
Continuous
 62
     7
100
AcDbCircle
 10
634.8749340680146
 20
23.61481254807463
 30
0.0
 40
0.1666666666666601
100
AcDbArc
 50
299.9816393688331
 51
60.01836063114554
  0
ARC
  5
A0
330
4F
100
AcDbEntity
  8
1
  6
Continuous
 62
     7
100
AcDbCircle
 10
618.2086376688948
 20
23.61481254807463
 30
0.0
 40
0.1666666666666092
100
AcDbArc
 50
119.9816393688883
 51
240.018360631133
  0
ARC
  5
A1
102
{ACAD_REACTORS
330
B0
102
}
330
4F
100
AcDbEntity
  8
1
  6
Continuous
 62
     7
100
AcDbCircle
 10
624.2084525351213
 20
21.38483369610733
 30
0.0
 40
0.6666666666666288
100
AcDbArc
 50
180.0000000000101
 51
240.0183606311581
  0
ARC
  5
A2
102
{ACAD_REACTORS
330
B1
102
}
330
4F
100
AcDbEntity
  8
1
  6
Continuous
 62
     7
100
AcDbCircle
 10
626.5417858684547
 20
23.94814588140789
 30
0.0
 40
0.1666666666667081
100
AcDbArc
 50
209.9999999999617
 51
330.0000000000188
  0
MTEXT
  5
A4
330
4F
100
AcDbEntity
  8
1
 62
     7
100
AcDbMText
 10
604.5417858684547
 20
21.17545196883068
 30
0.0
 40
4.5
 41
0.0
 71
     5
 72
     1
  1
1:1
  7
CONVERTER_11
 73
     1
 44
1.32052821128451
  0
MTEXT
  5
A5
330
4F
100
AcDbEntity
  8
1
 62
     7
100
AcDbMText
 10
604.5417858684547
 20
27.37545196883061
 30
0.0
 40
3.0
 41
0.0
 71
     5
 72
     1
  1
Scale
  7
CONVERTER_11
 73
     1
 44
1.32052821128451
  0
MTEXT
  5
A6
330
4F
100
AcDbEntity
  8
1
 62
     7
100
AcDbMText
 10
492.1417858684547
 20
23.61481254807463
 30
0.0
 40
4.5
 41
0.0
 71
     4
 72
     1
  1
JCVP 10\PSurface mounting housing, 2 levers, PG16 - JEI
  7
CONVERTER_11
 73
     1
 44
0.90036014405762
  0
MTEXT
  5
A7
330
4F
100
AcDbEntity
  8
1
 62
     7
100
AcDbMText
 10
499.3654851797116
 20
205.1148125480747
 30
0.0
 40
4.0
 41
0.0
 71
     5
 72
     1
  1
Diritti riservati      All rights reserved
  7
CONVERTER_11
 73
     1
 44
1.32052821128451
  0
MTEXT
  5
A9
330
4F
100
AcDbEntity
  8
1
 62
     7
100
AcDbMText
 10
470.865485179712
 20
28.61481254807457
 30
0.0
 40
2.5
 41
0.0
 71
     5
 72
     1
  1
dimensions in mm
  7
CONVERTER_12
 73
     1
 44
0.60024009603842
  0
MTEXT
  5
AA
330
4F
100
AcDbEntity
  8
1
 62
     7
100
AcDbMText
 10
456.865485179712
 20
23.6148125480745
 30
0.0
 40
3.0
 41
0.0
 71
     4
 72
     1
  1
Date
  7
CONVERTER_11
 73
     1
 44
1.32052821128451
  0
MTEXT
  5
AB
330
4F
100
AcDbEntity
  8
1
 62
     7
100
AcDbMText
 10
467.465485179712
 20
23.6148125480745
 30
0.0
 40
3.0
 41
0.0
 71
     4
 72
     1
  1
26/03/14
  7
CONVERTER_11
 73
     1
 44
1.32052821128451
  0
MTEXT
  5
AC
330
4F
100
AcDbEntity
  8
1
 62
     7
100
AcDbMText
 10
456.865485179712
 20
18.6148125480745
 30
0.0
 40
3.0
 41
0.0
 71
     4
 72
     1
  1
Sign.
  7
CONVERTER_11
 73
     1
 44
1.32052821128451
  0
MTEXT
  5
AD
330
4F
100
AcDbEntity
  8
1
 62
     7
100
AcDbMText
 10
467.465485179712
 20
18.6148125480745
 30
0.0
 40
3.0
 41
0.0
 71
     4
 72
     1
  1
Radice
  7
CONVERTER_11
 73
     1
 44
1.32052821128451
  0
HATCH
  5
AE
330
4F
100
AcDbEntity
  8
1
  6
Continuous
 62
     7
100
AcDbHatch
 10
0.0
 20
0.0
 30
0.0
210
0.0
220
0.0
230
1.0
  2
SOLID
 70
     1
 71
     1
 91
        1
 92
        1
 93
       14
 72
     2
 10
629.2084525351213
 20
26.037312708242
 40
0.3333333333333771
 50
60.01836063114997
 51
180.0
 73
     1
 72
     1
 10
628.875119201788
 20
26.037312708242
 11
628.875119201788
 21
21.19231238790726
 72
     2
 10
629.2084525351213
 20
21.19231238790726
 40
0.3333333333332575
 50
180.0
 51
299.98163936885
 73
     1
 72
     1
 10
629.3750266862845
 20
20.90358385922436
 11
630.7083600196178
 21
21.67281462845496
 72
     2
 10
630.5417858684547
 20
21.96154315713786
 40
0.3333333333333172
 50
299.9816393688334
 51
479.9816393688409
 73
     1
 72
     1
 10
630.3752117172914
 20
22.25027168582087
 11
629.5417858684547
 21
21.76944908072257
 72
     1
 10
629.5417858684547
 20
21.76944908072257
 11
629.5417858684547
 21
23.28147921474126
 72
     1
 10
629.5417858684547
 20
23.28147921474126
 11
630.5417858684547
 21
23.28147921474126
 72
     2
 10
630.5417858684547
 20
23.61481254807463
 40
0.3333333333333712
 50
270.0
 51
450.0
 73
     1
 72
     1
 10
630.5417858684547
 20
23.94814588140789
 11
629.5417858684547
 21
23.94814588140789
 72
     1
 10
629.5417858684547
 20
23.94814588140789
 11
629.5417858684547
 21
25.46017601542658
 72
     1
 10
629.5417858684547
 20
25.46017601542658
 11
630.3752117172914
 21
24.97935341032839
 72
     2
 10
630.5417858684547
 20
25.26808193901129
 40
0.333333333333374
 50
240.0183606311496
 51
420.0183606311565
 73
     1
 72
     1
 10
630.7083600196178
 20
25.55681046769407
 11
629.3750266862845
 21
26.3260412369249
 97
       14
330
94
330
6C
330
6B
330
6A
330
93
330
69
330
68
330
67
330
92
330
66
330
9D
330
84
330
9E
330
6D
 75
     0
 76
     1
 98
        1
 10
0.0
 20
0.0
  0
HATCH
  5
AF
330
4F
100
AcDbEntity
  8
1
  6
Continuous
 62
     7
100
AcDbHatch
 10
0.0
 20
0.0
 30
0.0
210
0.0
220
0.0
230
1.0
  2
SOLID
 70
     1
 71
     1
 91
        1
 92
        1
 93
        5
 72
     2
 10
622.5417858684547
 20
25.26808193901129
 40
0.3333333333332575
 50
0.0
 51
180.0
 73
     1
 72
     1
 10
622.2084525351213
 20
25.26808193901129
 11
622.2084525351213
 21
21.96154315713786
 72
     2
 10
622.5417858684547
 20
21.96154315713786
 40
0.3333333333333712
 50
180.0
 51
360.0
 73
     1
 72
     1
 10
622.8751192017879
 20
21.96154315713786
 11
622.8751192017879
 21
22.15406446533793
 72
     1
 10
622.8751192017879
 20
22.15406446533793
 11
622.8751192017879
 21
25.26808193901129
 97
        5
330
96
330
6E
330
95
330
6F
330
70
 75
     0
 76
     1
 98
        1
 10
0.0
 20
0.0
  0
HATCH
  5
B0
330
4F
100
AcDbEntity
  8
1
  6
Continuous
 62
     7
100
AcDbHatch
 10
0.0
 20
0.0
 30
0.0
210
0.0
220
0.0
230
1.0
  2
SOLID
 70
     1
 71
     1
 91
        1
 92
        1
 93
        7
 72
     2
 10
623.8751192017879
 20
26.037312708242
 40
0.3333333333333712
 50
0.0
 51
180.0
 73
     1
 72
     1
 10
623.5417858684547
 20
26.037312708242
 11
623.5417858684547
 21
21.38483369610721
 72
     2
 10
624.2084525351213
 20
21.38483369610733
 40
0.6666666666666288
 50
180.0000000000101
 51
240.0183606311581
 73
     1
 72
     1
 10
623.875304232795
 20
20.80737663874153
 11
626.0418783839581
 21
19.55743001307043
 72
     2
 10
626.2084525351213
 20
19.84615854175333
 40
0.333333333333374
 50
240.0183606311496
 51
420.0183606311497
 73
     1
 72
     1
 10
626.3750266862845
 20
20.13488707043623
 11
624.2084525351213
 21
21.38483369610733
 72
     1
 10
624.2084525351213
 20
21.38483369610733
 11
624.2084525351213
 21
26.037312708242
 97
        7
330
98
330
74
330
A1
330
71
330
97
330
72
330
73
 75
     0
 76
     1
 98
        1
 10
0.0
 20
0.0
  0
HATCH
  5
B1
330
4F
100
AcDbEntity
  8
1
  6
Continuous
 62
     7
100
AcDbHatch
 10
0.0
 20
0.0
 30
0.0
210
0.0
220
0.0
230
1.0
  2
SOLID
 70
     1
 71
     1
 91
        1
 92
        1
 93
       16
 72
     2
 10
627.943486322646
 20
26.8460298601092
 40
0.2649662124753149
 50
210.000000000025
 51
360.0
 73
     0
 72
     1
 10
628.2084525351213
 20
26.8460298601092
 11
628.2084525351213
 21
20.42308161867642
 72
     2
 10
627.875119201788
 20
20.42308161867642
 40
0.3333333333333712
 50
0.0
 51
180.0
 73
     0
 72
     1
 10
627.5417858684547
 20
20.42308161867642
 11
627.5417858684547
 21
23.61481254807463
 72
     1
 10
627.5417858684547
 20
23.61481254807463
 11
627.5417858684547
 21
25.34686335564347
 72
     1
 10
627.5417858684547
 20
25.34686335564347
 11
626.686123435752
 21
23.86481254807463
 72
     2
 10
626.5417858684547
 20
23.94814588140789
 40
0.1666666666667081
 50
29.99999999998124
 51
150.0000000000383
 73
     0
 72
     1
 10
626.3974483011572
 20
23.86481254807463
 11
625.5417858684547
 21
25.34686335564347
 72
     1
 10
625.5417858684547
 20
25.34686335564347
 11
625.5417858684547
 21
23.61481254807463
 72
     1
 10
625.5417858684547
 20
23.61481254807463
 11
625.5417858684547
 21
21.96239762070754
 72
     2
 10
625.2084525351213
 20
21.96239762070754
 40
0.3333333333333712
 50
0.0
 51
180.0
 73
     0
 72
     1
 10
624.8751192017879
 20
21.96239762070754
 11
624.8751192017879
 21
23.61481254807463
 72
     1
 10
624.8751192017879
 20
23.61481254807463
 11
624.8751192017879
 21
26.8460298601092
 72
     2
 10
625.1400854142632
 20
26.8460298601092
 40
0.2649662124753337
 50
180.0
 51
329.9999999999873
 73
     0
 72
     1
 10
625.3695528854114
 20
26.97851296634692
 11
626.5417858684547
 21
24.94814588140789
 72
     1
 10
626.5417858684547
 20
24.94814588140789
 11
627.7140188514979
 21
26.97851296634692
 97
       16
330
7A
330
9C
330
7B
330
79
330
9B
330
78
330
80
330
81
330
A2
330
82
330
83
330
77
330
9A
330
76
330
99
330
75
 75
     0
 76
     1
 98
        1
 10
0.0
 20
0.0
  0
ENDBLK
  5
51
330
4F
100
AcDbEntity
  8
0
100
AcDbBlockEnd
  0
BLOCK
  5
54
330
52
100
AcDbEntity
  8
0
100
AcDbBlockBegin
  2
A4_oriz
 70
     0
 10
644.865485179712
 20
11.11481254807463
 30
0.0
  3
A4_oriz
  1

  0
INSERT
  5
53
330
52
100
AcDbEntity
  8
1
100
AcDbBlockReference
  2
_formato_A4
 10
644.865485179712
 20
11.11481254807463
 30
0.0
  0
ENDBLK
  5
55
330
52
100
AcDbEntity
  8
0
100
AcDbBlockEnd
  0
BLOCK
  5
729
330
721
100
AcDbEntity
  8
0
100
AcDbBlockBegin
  2
*D3
 70
     1
 10
0.0
 20
0.0
 30
0.0
  3
*D3
  1

  0
LINE
  5
722
330
721
100
AcDbEntity
  8
Bemaßungen_TC_020513_DIN_
  6
Continuous
 62
     7
100
AcDbLine
 10
502.5301075000331
 20
97.1441906695708
 30
0.0
 11
502.5301075000331
 21
120.6281906695708
 31
0.0
  0
LINE
  5
723
330
721
100
AcDbEntity
  8
Bemaßungen_TC_020513_DIN_
  6
Continuous
 62
     7
100
AcDbLine
 10
487.530107500033
 20
120.6281906695708
 30
0.0
 11
504.5301075000331
 21
120.6281906695708
 31
0.0
  0
LINE
  5
724
330
721
100
AcDbEntity
  8
Bemaßungen_TC_020513_DIN_
  6
Continuous
 62
     7
100
AcDbLine
 10
487.530107500033
 20
97.1441906695708
 30
0.0
 11
504.5301075000331
 21
97.1441906695708
 31
0.0
  0
SOLID
  5
725
330
721
100
AcDbEntity
  8
Bemaßungen_TC_020513_DIN_
 62
     7
100
AcDbTrace
 10
502.8592387440016
 20
118.1281906695708
 30
0.0
 11
502.2009762560646
 21
118.1281906695708
 31
0.0
 12
502.5301075000331
 22
120.6281906695708
 32
0.0
 13
502.5301075000331
 23
120.6281906695708
 33
0.0
  0
SOLID
  5
726
330
721
100
AcDbEntity
  8
Bemaßungen_TC_020513_DIN_
 62
     7
100
AcDbTrace
 10
502.2009762560646
 20
99.6441906695708
 30
0.0
 11
502.8592387440016
 21
99.6441906695708
 31
0.0
 12
502.5301075000331
 22
97.1441906695708
 32
0.0
 13
502.5301075000331
 23
97.1441906695708
 33
0.0
  0
MTEXT
  5
728
330
721
100
AcDbEntity
  8
Bemaßungen_TC_020513_DIN_
 62
     7
100
AcDbMText
 10
499.521182819208
 20
104.5954119064967
 30
0.0
 40
3.5
 41
0.0
 71
     7
 72
     1
  1
PG16
  7
CONVERTER_13
 11
0.0
 21
1.0
 31
0.0
 73
     1
 44
0.45454545454545
  0
ENDBLK
  5
72A
330
721
100
AcDbEntity
  8
0
100
AcDbBlockEnd
  0
BLOCK
  5
734
330
72D
100
AcDbEntity
  8
0
100
AcDbBlockBegin
  2
*D4
 70
     1
 10
0.0
 20
0.0
 30
0.0
  3
*D4
  1

  0
LINE
  5
72E
330
72D
100
AcDbEntity
  8
Bemaßungen_TC_020513_DIN_
  6
Continuous
 62
     7
100
AcDbLine
 10
499.2140574717487
 20
177.3061906695712
 30
0.0
 11
380.3461575283165
 21
177.3061906695712
 31
0.0
  0
LINE
  5
72F
330
72D
100
AcDbEntity
  8
Bemaßungen_TC_020513_DIN_
  6
Continuous
 62
     7
100
AcDbLine
 10
380.3461575283165
 20
132.3061906695712
 30
0.0
 11
380.3461575283165
 21
179.3061906695712
 31
0.0
  0
LINE
  5
730
330
72D
100
AcDbEntity
  8
Bemaßungen_TC_020513_DIN_
  6
Continuous
 62
     7
100
AcDbLine
 10
499.2140574717487
 20
132.3061906695712
 30
0.0
 11
499.2140574717487
 21
179.3061906695712
 31
0.0
  0
SOLID
  5
731
330
72D
100
AcDbEntity
  8
Bemaßungen_TC_020513_DIN_
 62
     7
100
AcDbTrace
 10
382.8461575283165
 20
177.6353219135397
 30
0.0
 11
382.8461575283165
 21
176.9770594256027
 31
0.0
 12
380.3461575283165
 22
177.3061906695712
 32
0.0
 13
380.3461575283165
 23
177.3061906695712
 33
0.0
  0
SOLID
  5
732
330
72D
100
AcDbEntity
  8
Bemaßungen_TC_020513_DIN_
 62
     7
100
AcDbTrace
 10
496.7140574717487
 20
176.9770594256027
 30
0.0
 11
496.7140574717487
 21
177.6353219135397
 31
0.0
 12
499.2140574717487
 22
177.3061906695712
 32
0.0
 13
499.2140574717487
 23
177.3061906695712
 33
0.0
  0
MTEXT
  5
733
330
72D
100
AcDbEntity
  8
Bemaßungen_TC_020513_DIN_
 62
     7
100
AcDbMText
 10
438.1631202330931
 20
180.295873225414
 30
0.0
 40
3.5
 41
0.0
 71
     7
 72
     1
  1
119
  7
CONVERTER_13
 11
0.9999999999970619
 21
2.424068405545306E-6
 31
0.0
 73
     1
 44
0.45454545454545
  0
ENDBLK
  5
735
330
72D
100
AcDbEntity
  8
0
100
AcDbBlockEnd
  0
BLOCK
  5
73F
330
738
100
AcDbEntity
  8
0
100
AcDbBlockBegin
  2
*D5
 70
     1
 10
0.0
 20
0.0
 30
0.0
  3
*D5
  1

  0
LINE
  5
739
330
738
100
AcDbEntity
  8
Bemaßungen_TC_020513_DIN_
  6
Continuous
 62
     7
100
AcDbLine
 10
614.5079298983997
 20
167.3061906695709
 30
0.0
 11
614.5079298983997
 21
92.30619066957101
 31
0.0
  0
LINE
  5
73A
330
738
100
AcDbEntity
  8
Bemaßungen_TC_020513_DIN_
  6
Continuous
 62
     7
100
AcDbLine
 10
592.6175589528457
 20
92.30619066957101
 30
0.0
 11
616.5079298983997
 21
92.30619066957101
 31
0.0
  0
LINE
  5
73B
330
738
100
AcDbEntity
  8
Bemaßungen_TC_020513_DIN_
  6
Continuous
 62
     7
100
AcDbLine
 10
590.4175589528544
 20
167.3061906695709
 30
0.0
 11
616.5079298983997
 21
167.3061906695709
 31
0.0
  0
SOLID
  5
73C
330
738
100
AcDbEntity
  8
Bemaßungen_TC_020513_DIN_
 62
     7
100
AcDbTrace
 10
614.1787986544311
 20
94.80619066957101
 30
0.0
 11
614.8370611423682
 21
94.80619066957101
 31
0.0
 12
614.5079298983997
 22
92.30619066957101
 32
0.0
 13
614.5079298983997
 23
92.30619066957101
 33
0.0
  0
SOLID
  5
73D
330
738
100
AcDbEntity
  8
Bemaßungen_TC_020513_DIN_
 62
     7
100
AcDbTrace
 10
614.8370611423682
 20
164.8061906695709
 30
0.0
 11
614.1787986544311
 21
164.8061906695709
 31
0.0
 12
614.5079298983997
 22
167.3061906695709
 32
0.0
 13
614.5079298983997
 23
167.3061906695709
 33
0.0
  0
MTEXT
  5
73E
330
738
100
AcDbEntity
  8
Bemaßungen_TC_020513_DIN_
 62
     7
100
AcDbMText
 10
611.5151591002756
 20
128.7122297782567
 30
0.0
 40
3.5
 41
0.0
 71
     7
 72
     1
  1
75
  7
CONVERTER_13
 11
0.0
 21
1.0
 31
0.0
 73
     1
 44
0.45454545454545
  0
ENDBLK
  5
740
330
738
100
AcDbEntity
  8
0
100
AcDbBlockEnd
  0
BLOCK
  5
74A
330
743
100
AcDbEntity
  8
0
100
AcDbBlockBegin
  2
*D6
 70
     1
 10
0.0
 20
0.0
 30
0.0
  3
*D6
  1

  0
LINE
  5
744
330
743
100
AcDbEntity
  8
Bemaßungen_TC_020513_DIN_
  6
Continuous
 62
     7
100
AcDbLine
 10
607.617558952846
 20
87.30619066957122
 30
0.0
 11
607.617558952846
 21
101.3061906695712
 31
0.0
  0
LINE
  5
745
330
743
100
AcDbEntity
  8
Bemaßungen_TC_020513_DIN_
  6
Continuous
 62
     7
100
AcDbLine
 10
592.617558952846
 20
96.30619066957122
 30
0.0
 11
609.617558952846
 21
96.30619066957122
 31
0.0
  0
LINE
  5
746
330
743
100
AcDbEntity
  8
Bemaßungen_TC_020513_DIN_
  6
Continuous
 62
     7
100
AcDbLine
 10
592.617558952846
 20
92.30619066957122
 30
0.0
 11
609.617558952846
 21
92.30619066957122
 31
0.0
  0
SOLID
  5
747
330
743
100
AcDbEntity
  8
Bemaßungen_TC_020513_DIN_
 62
     7
100
AcDbTrace
 10
607.2884277088775
 20
98.80619066957122
 30
0.0
 11
607.9466901968145
 21
98.80619066957122
 31
0.0
 12
607.617558952846
 22
96.30619066957122
 32
0.0
 13
607.617558952846
 23
96.30619066957122
 33
0.0
  0
SOLID
  5
748
330
743
100
AcDbEntity
  8
Bemaßungen_TC_020513_DIN_
 62
     7
100
AcDbTrace
 10
607.9466901968145
 20
89.80619066957122
 30
0.0
 11
607.2884277088775
 21
89.80619066957122
 31
0.0
 12
607.617558952846
 22
92.30619066957122
 32
0.0
 13
607.617558952846
 23
92.30619066957122
 33
0.0
  0
MTEXT
  5
749
330
743
100
AcDbEntity
  8
Bemaßungen_TC_020513_DIN_
 62
     7
100
AcDbMText
 10
604.7105937787168
 20
93.83075410749758
 30
0.0
 40
3.5
 41
0.0
 71
     7
 72
     1
  1
4
  7
CONVERTER_13
 11
0.0
 21
1.0
 31
0.0
 73
     1
 44
0.45454545454545
  0
ENDBLK
  5
74B
330
743
100
AcDbEntity
  8
0
100
AcDbBlockEnd
  0
BLOCK
  5
755
330
74E
100
AcDbEntity
  8
0
100
AcDbBlockBegin
  2
*D7
 70
     1
 10
0.0
 20
0.0
 30
0.0
  3
*D7
  1

  0
LINE
  5
74F
330
74E
100
AcDbEntity
  8
Bemaßungen_TC_020513_DIN_
  6
Continuous
 62
     7
100
AcDbLine
 10
585.3675589528498
 20
78.30619066957122
 30
0.0
 11
545.6175589528478
 21
78.30619066957122
 31
0.0
  0
LINE
  5
750
330
74E
100
AcDbEntity
  8
Bemaßungen_TC_020513_DIN_
  6
Continuous
 62
     7
100
AcDbLine
 10
545.6175589528478
 20
93.30619066957122
 30
0.0
 11
545.6175589528478
 21
76.30619066957122
 31
0.0
  0
LINE
  5
751
330
74E
100
AcDbEntity
  8
Bemaßungen_TC_020513_DIN_
  6
Continuous
 62
     7
100
AcDbLine
 10
585.3675589528498
 20
93.30619066957122
 30
0.0
 11
585.3675589528498
 21
76.30619066957122
 31
0.0
  0
SOLID
  5
752
330
74E
100
AcDbEntity
  8
Bemaßungen_TC_020513_DIN_
 62
     7
100
AcDbTrace
 10
548.1175589528478
 20
78.63532191353971
 30
0.0
 11
548.1175589528478
 21
77.97705942560273
 31
0.0
 12
545.6175589528478
 22
78.30619066957122
 32
0.0
 13
545.6175589528478
 23
78.30619066957122
 33
0.0
  0
SOLID
  5
753
330
74E
100
AcDbEntity
  8
Bemaßungen_TC_020513_DIN_
 62
     7
100
AcDbTrace
 10
582.8675589528498
 20
77.97705942560273
 30
0.0
 11
582.8675589528498
 21
78.63532191353971
 31
0.0
 12
585.3675589528498
 22
78.30619066957122
 32
0.0
 13
585.3675589528498
 23
78.30619066957122
 33
0.0
  0
MTEXT
  5
754
330
74E
100
AcDbEntity
  8
Bemaßungen_TC_020513_DIN_
 62
     7
100
AcDbMText
 10
563.3844336686287
 20
82.18974119796609
 30
0.0
 40
3.5
 41
0.0
 71
     7
 72
     1
  1
39,75
  7
CONVERTER_13
 11
0.9999999999970619
 21
2.424068405545306E-6
 31
0.0
 73
     1
 44
0.45454545454545
  0
ENDBLK
  5
756
330
74E
100
AcDbEntity
  8
0
100
AcDbBlockEnd
  0
BLOCK
  5
760
330
759
100
AcDbEntity
  8
0
100
AcDbBlockBegin
  2
*D8
 70
     1
 10
0.0
 20
0.0
 30
0.0
  3
*D8
  1

  0
LINE
  5
75A
330
759
100
AcDbEntity
  8
Bemaßungen_TC_020513_DIN_
  6
Continuous
 62
     7
100
AcDbLine
 10
591.6175589528464
 20
66.30619066957124
 30
0.0
 11
539.6175589528464
 21
66.30619066957124
 31
0.0
  0
LINE
  5
75B
330
759
100
AcDbEntity
  8
Bemaßungen_TC_020513_DIN_
  6
Continuous
 62
     7
100
AcDbLine
 10
539.6175589528464
 20
93.3061906695713
 30
0.0
 11
539.6175589528464
 21
64.30619066957124
 31
0.0
  0
LINE
  5
75C
330
759
100
AcDbEntity
  8
Bemaßungen_TC_020513_DIN_
  6
Continuous
 62
     7
100
AcDbLine
 10
591.6175589528464
 20
93.3061906695713
 30
0.0
 11
591.6175589528464
 21
64.30619066957124
 31
0.0
  0
SOLID
  5
75D
330
759
100
AcDbEntity
  8
Bemaßungen_TC_020513_DIN_
 62
     7
100
AcDbTrace
 10
542.1175589528464
 20
66.63532191353973
 30
0.0
 11
542.1175589528464
 21
65.97705942560275
 31
0.0
 12
539.6175589528464
 22
66.30619066957124
 32
0.0
 13
539.6175589528464
 23
66.30619066957124
 33
0.0
  0
SOLID
  5
75E
330
759
100
AcDbEntity
  8
Bemaßungen_TC_020513_DIN_
 62
     7
100
AcDbTrace
 10
589.1175589528464
 20
65.97705942560275
 30
0.0
 11
589.1175589528464
 21
66.63532191353973
 31
0.0
 12
591.6175589528464
 22
66.30619066957124
 32
0.0
 13
591.6175589528464
 23
66.30619066957124
 33
0.0
  0
MTEXT
  5
75F
330
759
100
AcDbEntity
  8
Bemaßungen_TC_020513_DIN_
 62
     7
100
AcDbMText
 10
563.9823949018667
 20
69.29587322541413
 30
0.0
 40
3.5
 41
0.0
 71
     7
 72
     1
  1
52
  7
CONVERTER_13
 11
0.9999999999970619
 21
2.424068405545306E-6
 31
0.0
 73
     1
 44
0.45454545454545
  0
ENDBLK
  5
761
330
759
100
AcDbEntity
  8
0
100
AcDbBlockEnd
  0
BLOCK
  5
76B
330
764
100
AcDbEntity
  8
0
100
AcDbBlockBegin
  2
*D9
 70
     1
 10
0.0
 20
0.0
 30
0.0
  3
*D9
  1

  0
LINE
  5
765
330
764
100
AcDbEntity
  8
Bemaßungen_TC_020513_DIN_
  6
Continuous
 62
     7
100
AcDbLine
 10
398.7801075000326
 20
77.48598877238345
 30
0.0
 11
480.7801075000326
 21
77.48598877238345
 31
0.0
  0
LINE
  5
766
330
764
100
AcDbEntity
  8
Bemaßungen_TC_020513_DIN_
  6
Continuous
 62
     7
100
AcDbLine
 10
480.7801075000326
 20
93.30619066957118
 30
0.0
 11
480.7801075000326
 21
75.48598877238345
 31
0.0
  0
LINE
  5
767
330
764
100
AcDbEntity
  8
Bemaßungen_TC_020513_DIN_
  6
Continuous
 62
     7
100
AcDbLine
 10
398.7801075000326
 20
93.30619066957118
 30
0.0
 11
398.7801075000326
 21
75.48598877238345
 31
0.0
  0
SOLID
  5
768
330
764
100
AcDbEntity
  8
Bemaßungen_TC_020513_DIN_
 62
     7
100
AcDbTrace
 10
478.2801075000326
 20
77.15685752841496
 30
0.0
 11
478.2801075000326
 21
77.81512001635194
 31
0.0
 12
480.7801075000326
 22
77.48598877238345
 32
0.0
 13
480.7801075000326
 23
77.48598877238345
 33
0.0
  0
SOLID
  5
769
330
764
100
AcDbEntity
  8
Bemaßungen_TC_020513_DIN_
 62
     7
100
AcDbTrace
 10
401.2801075000326
 20
77.81512001635194
 30
0.0
 11
401.2801075000326
 21
77.15685752841496
 31
0.0
 12
398.7801075000326
 22
77.48598877238345
 32
0.0
 13
398.7801075000326
 23
77.48598877238345
 33
0.0
  0
MTEXT
  5
76A
330
764
100
AcDbEntity
  8
Bemaßungen_TC_020513_DIN_
 62
     7
100
AcDbMText
 10
438.7179713017607
 20
80.47567132822633
 30
0.0
 40
3.5
 41
0.0
 71
     7
 72
     1
  1
82
  7
CONVERTER_13
 11
0.9999999999970619
 21
2.424068405545306E-6
 31
0.0
 73
     1
 44
0.45454545454545
  0
ENDBLK
  5
76C
330
764
100
AcDbEntity
  8
0
100
AcDbBlockEnd
  0
BLOCK
  5
776
330
76F
100
AcDbEntity
  8
0
100
AcDbBlockBegin
  2
*D10
 70
     1
 10
0.0
 20
0.0
 30
0.0
  3
*D10
  1

  0
LINE
  5
770
330
76F
100
AcDbEntity
  8
Bemaßungen_TC_020513_DIN_
  6
Continuous
 62
     7
100
AcDbLine
 10
486.5301075000326
 20
66.30619066957122
 30
0.0
 11
393.0301075000326
 21
66.30619066957122
 31
0.0
  0
LINE
  5
771
330
76F
100
AcDbEntity
  8
Bemaßungen_TC_020513_DIN_
  6
Continuous
 62
     7
100
AcDbLine
 10
393.0301075000326
 20
93.3061906695712
 30
0.0
 11
393.0301075000326
 21
64.30619066957122
 31
0.0
  0
LINE
  5
772
330
76F
100
AcDbEntity
  8
Bemaßungen_TC_020513_DIN_
  6
Continuous
 62
     7
100
AcDbLine
 10
486.5301075000326
 20
93.3061906695712
 30
0.0
 11
486.5301075000326
 21
64.30619066957122
 31
0.0
  0
SOLID
  5
773
330
76F
100
AcDbEntity
  8
Bemaßungen_TC_020513_DIN_
 62
     7
100
AcDbTrace
 10
395.5301075000326
 20
66.63532191353971
 30
0.0
 11
395.5301075000326
 21
65.97705942560273
 31
0.0
 12
393.0301075000326
 22
66.30619066957122
 32
0.0
 13
393.0301075000326
 23
66.30619066957122
 33
0.0
  0
SOLID
  5
774
330
76F
100
AcDbEntity
  8
Bemaßungen_TC_020513_DIN_
 62
     7
100
AcDbTrace
 10
484.0301075000326
 20
65.97705942560273
 30
0.0
 11
484.0301075000326
 21
66.63532191353971
 31
0.0
 12
486.5301075000326
 22
66.30619066957122
 32
0.0
 13
486.5301075000326
 23
66.30619066957122
 33
0.0
  0
MTEXT
  5
775
330
76F
100
AcDbEntity
  8
Bemaßungen_TC_020513_DIN_
 62
     7
100
AcDbMText
 10
438.3537739393232
 20
70.18974119796609
 30
0.0
 40
3.5
 41
0.0
 71
     7
 72
     1
  1
93,5
  7
CONVERTER_13
 11
0.9999999999970619
 21
2.424068405545306E-6
 31
0.0
 73
     1
 44
0.45454545454545
  0
ENDBLK
  5
777
330
76F
100
AcDbEntity
  8
0
100
AcDbBlockEnd
  0
BLOCK
  5
781
330
77A
100
AcDbEntity
  8
0
100
AcDbBlockBegin
  2
*D11
 70
     1
 10
0.0
 20
0.0
 30
0.0
  3
*D11
  1

  0
LINE
  5
77B
330
77A
100
AcDbEntity
  8
Bemaßungen_TC_020513_DIN_
  6
Continuous
 62
     7
100
AcDbLine
 10
514.8740293293415
 20
149.3061906695711
 30
0.0
 11
514.8740293293415
 21
92.3061906695711
 31
0.0
  0
LINE
  5
77C
330
77A
100
AcDbEntity
  8
Bemaßungen_TC_020513_DIN_
  6
Continuous
 62
     7
100
AcDbLine
 10
487.530107500033
 20
92.3061906695711
 30
0.0
 11
516.8740293293415
 21
92.3061906695711
 31
0.0
  0
LINE
  5
77D
330
77A
100
AcDbEntity
  8
Bemaßungen_TC_020513_DIN_
  6
Continuous
 62
     7
100
AcDbLine
 10
472.680107500033
 20
149.3061906695711
 30
0.0
 11
516.8740293293415
 21
149.3061906695711
 31
0.0
  0
SOLID
  5
77E
330
77A
100
AcDbEntity
  8
Bemaßungen_TC_020513_DIN_
 62
     7
100
AcDbTrace
 10
514.544898085373
 20
94.8061906695711
 30
0.0
 11
515.20316057331
 21
94.8061906695711
 31
0.0
 12
514.8740293293415
 22
92.3061906695711
 32
0.0
 13
514.8740293293415
 23
92.3061906695711
 33
0.0
  0
SOLID
  5
77F
330
77A
100
AcDbEntity
  8
Bemaßungen_TC_020513_DIN_
 62
     7
100
AcDbTrace
 10
515.20316057331
 20
146.8061906695711
 30
0.0
 11
514.544898085373
 21
146.8061906695711
 31
0.0
 12
514.8740293293415
 22
149.3061906695711
 32
0.0
 13
514.8740293293415
 23
149.3061906695711
 33
0.0
  0
MTEXT
  5
780
330
77A
100
AcDbEntity
  8
Bemaßungen_TC_020513_DIN_
 62
     7
100
AcDbMText
 10
511.8812585312176
 20
119.7110360538367
 30
0.0
 40
3.5
 41
0.0
 71
     7
 72
     1
  1
57
  7
CONVERTER_13
 11
0.0
 21
1.0
 31
0.0
 73
     1
 44
0.45454545454545
  0
ENDBLK
  5
782
330
77A
100
AcDbEntity
  8
0
100
AcDbBlockEnd
  0
ENDSEC
  0
SECTION
  2
ENTITIES
  0
INSERT
  5
56
330
1F
100
AcDbEntity
  8
0
100
AcDbBlockReference
  2
A4_oriz
 10
644.865485179712
 20
11.11481254807463
 30
0.0
  0
POINT
  5
B2
330
1F
100
AcDbEntity
  8
Bemaßungen_TC_020513_DIN_
 62
     7
100
AcDbPoint
 10
486.530107500033
 20
120.628190669571
 30
0.0
  0
POINT
  5
B3
330
1F
100
AcDbEntity
  8
Bemaßungen_TC_020513_DIN_
 62
     7
100
AcDbPoint
 10
486.530107500033
 20
97.14419066957119
 30
0.0
  0
POINT
  5
B4
330
1F
100
AcDbEntity
  8
Bemaßungen_TC_020513_DIN_
 62
     7
100
AcDbPoint
 10
380.3461575283165
 20
131.306190669571
 30
0.0
  0
POINT
  5
B5
330
1F
100
AcDbEntity
  8
Bemaßungen_TC_020513_DIN_
 62
     7
100
AcDbPoint
 10
499.214057471749
 20
131.306190669571
 30
0.0
  0
POINT
  5
B6
330
1F
100
AcDbEntity
  8
Bemaßungen_TC_020513_DIN_
 62
     7
100
AcDbPoint
 10
591.617558952846
 20
92.3061906695712
 30
0.0
  0
POINT
  5
B7
330
1F
100
AcDbEntity
  8
Bemaßungen_TC_020513_DIN_
 62
     7
100
AcDbPoint
 10
589.417558952855
 20
167.306190669571
 30
0.0
  0
POINT
  5
B8
330
1F
100
AcDbEntity
  8
Bemaßungen_TC_020513_DIN_
 62
     7
100
AcDbPoint
 10
591.617558952846
 20
96.3061906695712
 30
0.0
  0
POINT
  5
B9
330
1F
100
AcDbEntity
  8
Bemaßungen_TC_020513_DIN_
 62
     7
100
AcDbPoint
 10
591.617558952846
 20
92.3061906695712
 30
0.0
  0
POINT
  5
BA
330
1F
100
AcDbEntity
  8
Bemaßungen_TC_020513_DIN_
 62
     7
100
AcDbPoint
 10
545.617558952848
 20
94.3061906695712
 30
0.0
  0
POINT
  5
BB
330
1F
100
AcDbEntity
  8
Bemaßungen_TC_020513_DIN_
 62
     7
100
AcDbPoint
 10
585.36755895285
 20
94.3061906695712
 30
0.0
  0
POINT
  5
BC
330
1F
100
AcDbEntity
  8
Bemaßungen_TC_020513_DIN_
 62
     7
100
AcDbPoint
 10
539.617558952846
 20
94.3061906695712
 30
0.0
  0
POINT
  5
BD
330
1F
100
AcDbEntity
  8
Bemaßungen_TC_020513_DIN_
 62
     7
100
AcDbPoint
 10
591.617558952846
 20
94.3061906695712
 30
0.0
  0
POINT
  5
BE
330
1F
100
AcDbEntity
  8
Bemaßungen_TC_020513_DIN_
 62
     7
100
AcDbPoint
 10
480.780107500033
 20
94.3061906695712
 30
0.0
  0
POINT
  5
BF
330
1F
100
AcDbEntity
  8
Bemaßungen_TC_020513_DIN_
 62
     7
100
AcDbPoint
 10
398.7801075000326
 20
94.3061906695712
 30
0.0
  0
POINT
  5
C0
330
1F
100
AcDbEntity
  8
Bemaßungen_TC_020513_DIN_
 62
     7
100
AcDbPoint
 10
393.0301075000326
 20
94.3061906695712
 30
0.0
  0
POINT
  5
C1
330
1F
100
AcDbEntity
  8
Bemaßungen_TC_020513_DIN_
 62
     7
100
AcDbPoint
 10
486.530107500033
 20
94.3061906695712
 30
0.0
  0
POINT
  5
C2
330
1F
100
AcDbEntity
  8
Bemaßungen_TC_020513_DIN_
 62
     7
100
AcDbPoint
 10
486.530107500033
 20
92.3061906695712
 30
0.0
  0
POINT
  5
C3
330
1F
100
AcDbEntity
  8
Bemaßungen_TC_020513_DIN_
 62
     7
100
AcDbPoint
 10
471.680107500033
 20
149.306190669571
 30
0.0
  0
LINE
  5
C4
330
1F
100
AcDbEntity
  8
Sichtbare_Kanten_TC_020513_DIN_
  6
Continuous
 62
     7
100
AcDbLine
 10
441.5301075000326
 20
115.749857280707
 30
0.0
 11
441.5301075000326
 21
118.862524058436
 31
0.0
  0
LINE
  5
C5
330
1F
100
AcDbEntity
  8
Sichtbare_Kanten_TC_020513_DIN_
  6
Continuous
 62
     7
100
AcDbLine
 10
442.9049964475251
 20
116.109953518196
 30
0.0
 11
441.9049964475251
 21
115.53328685153
 31
0.0
  0
LINE
  5
C6
330
1F
100
AcDbEntity
  8
Sichtbare_Kanten_TC_020513_DIN_
  6
Continuous
 62
     7
100
AcDbLine
 10
442.0301075000327
 20
116.182613669606
 30
0.0
 11
442.6552185525402
 21
116.543094376552
 31
0.0
  0
LINE
  5
C7
330
1F
100
AcDbEntity
  8
Sichtbare_Kanten_TC_020513_DIN_
  6
Continuous
 62
     7
100
AcDbLine
 10
442.0301075000327
 20
117.056190669572
 30
0.0
 11
442.0301075000327
 21
116.182613669606
 31
0.0
  0
LINE
  5
C8
330
1F
100
AcDbEntity
  8
Sichtbare_Kanten_TC_020513_DIN_
  6
Continuous
 62
     7
100
AcDbLine
 10
442.7801075000326
 20
117.056190669572
 30
0.0
 11
442.0301075000327
 21
117.056190669572
 31
0.0
  0
LINE
  5
C9
330
1F
100
AcDbEntity
  8
Sichtbare_Kanten_TC_020513_DIN_
  6
Continuous
 62
     7
100
AcDbLine
 10
442.0301075000327
 20
117.556190669572
 30
0.0
 11
442.7801075000326
 21
117.556190669572
 31
0.0
  0
LINE
  5
CA
330
1F
100
AcDbEntity
  8
Sichtbare_Kanten_TC_020513_DIN_
  6
Continuous
 62
     7
100
AcDbLine
 10
442.0301075000327
 20
118.429767669538
 30
0.0
 11
442.0301075000327
 21
117.556190669572
 31
0.0
  0
LINE
  5
CB
330
1F
100
AcDbEntity
  8
Sichtbare_Kanten_TC_020513_DIN_
  6
Continuous
 62
     7
100
AcDbLine
 10
442.6552185525401
 20
118.069286962592
 30
0.0
 11
442.0301075000327
 21
118.429767669538
 31
0.0
  0
LINE
  5
CC
330
1F
100
AcDbEntity
  8
Sichtbare_Kanten_TC_020513_DIN_
  6
Continuous
 62
     7
100
AcDbLine
 10
441.9049964475251
 20
119.079094487614
 30
0.0
 11
442.9049964475251
 21
118.502427820947
 31
0.0
  0
LINE
  5
CD
330
1F
100
AcDbEntity
  8
Sichtbare_Kanten_TC_020513_DIN_
  6
Continuous
 62
     7
100
AcDbLine
 10
437.0301075000326
 20
118.296190669571
 30
0.0
 11
437.0301075000327
 21
116.316190669571
 31
0.0
  0
LINE
  5
CE
330
1F
100
AcDbEntity
  8
Sichtbare_Kanten_TC_020513_DIN_
  6
Continuous
 62
     7
100
AcDbLine
 10
436.5301075000327
 20
116.316190669571
 30
0.0
 11
436.5301075000327
 21
118.296190669571
 31
0.0
  0
LINE
  5
CF
330
1F
100
AcDbEntity
  8
Sichtbare_Kanten_TC_020513_DIN_
  6
Continuous
 62
     7
100
AcDbLine
 10
433.7801075000326
 20
117.306190669571
 30
0.0
 11
439.7801075000327
 21
113.846190669572
 31
0.0
  0
LINE
  5
D0
330
1F
100
AcDbEntity
  8
Sichtbare_Kanten_TC_020513_DIN_
  6
Continuous
 62
     7
100
AcDbLine
 10
439.7801075000327
 20
113.846190669572
 30
0.0
 11
445.780107500033
 21
117.306190669571
 31
0.0
  0
LINE
  5
D1
330
1F
100
AcDbEntity
  8
Sichtbare_Kanten_TC_020513_DIN_
  6
Continuous
 62
     7
100
AcDbLine
 10
445.780107500033
 20
117.306190669571
 30
0.0
 11
439.7801075000327
 21
120.766190669572
 31
0.0
  0
LINE
  5
D2
330
1F
100
AcDbEntity
  8
Sichtbare_Kanten_TC_020513_DIN_
  6
Continuous
 62
     7
100
AcDbLine
 10
439.7801075000327
 20
120.766190669572
 30
0.0
 11
433.7801075000326
 21
117.306190669571
 31
0.0
  0
LINE
  5
D3
330
1F
100
AcDbEntity
  8
Sichtbare_Kanten_TC_020513_DIN_
  6
Continuous
 62
     7
100
AcDbLine
 10
439.7801075000327
 20
113.55760094734
 30
0.0
 11
433.2796628950059
 21
117.306190669572
 31
0.0
  0
LINE
  5
D4
330
1F
100
AcDbEntity
  8
Sichtbare_Kanten_TC_020513_DIN_
  6
Continuous
 62
     7
100
AcDbLine
 10
446.280552105059
 20
117.306190669572
 30
0.0
 11
439.7801075000327
 21
113.55760094734
 31
0.0
  0
LINE
  5
D5
330
1F
100
AcDbEntity
  8
Sichtbare_Kanten_TC_020513_DIN_
  6
Continuous
 62
     7
100
AcDbLine
 10
439.7801075000327
 20
121.054780391804
 30
0.0
 11
446.280552105059
 21
117.306190669572
 31
0.0
  0
LINE
  5
D6
330
1F
100
AcDbEntity
  8
Sichtbare_Kanten_TC_020513_DIN_
  6
Continuous
 62
     7
100
AcDbLine
 10
433.2796628950059
 20
117.306190669572
 30
0.0
 11
439.7801075000327
 21
121.054780391804
 31
0.0
  0
LINE
  5
D7
330
1F
100
AcDbEntity
  8
Sichtbare_Kanten_TC_020513_DIN_
  6
Continuous
 62
     7
100
AcDbLine
 10
439.6552185525402
 20
114.379953518197
 30
0.0
 11
437.6552185525402
 21
115.53328685153
 31
0.0
  0
LINE
  5
D8
330
1F
100
AcDbEntity
  8
Sichtbare_Kanten_TC_020513_DIN_
  6
Continuous
 62
     7
100
AcDbLine
 10
438.0301075000327
 20
115.894280336273
 30
0.0
 11
439.9049964475251
 21
114.813094376552
 31
0.0
  0
LINE
  5
D9
330
1F
100
AcDbEntity
  8
Sichtbare_Kanten_TC_020513_DIN_
  6
Continuous
 62
     7
100
AcDbLine
 10
438.0301075000327
 20
118.862524058436
 30
0.0
 11
438.0301075000327
 21
115.894280336273
 31
0.0
  0
LINE
  5
DA
330
1F
100
AcDbEntity
  8
Sichtbare_Kanten_TC_020513_DIN_
  6
Continuous
 62
     7
100
AcDbLine
 10
437.5301075000326
 20
115.749857280708
 30
0.0
 11
437.5301075000326
 21
118.862524058436
 31
0.0
  0
LINE
  5
DB
330
1F
100
AcDbEntity
  8
Sichtbare_Kanten_TC_020513_DIN_
  6
Continuous
 62
     7
100
AcDbLine
 10
439.0301075000326
 20
118.686511789751
 30
0.0
 11
439.0301075000326
 21
116.316190669571
 31
0.0
  0
LINE
  5
DC
330
1F
100
AcDbEntity
  8
Sichtbare_Kanten_TC_020513_DIN_
  6
Continuous
 62
     7
100
AcDbLine
 10
439.7801075000327
 20
117.682048486643
 30
0.0
 11
439.0301075000326
 21
118.686511789751
 31
0.0
  0
LINE
  5
DD
330
1F
100
AcDbEntity
  8
Sichtbare_Kanten_TC_020513_DIN_
  6
Continuous
 62
     7
100
AcDbLine
 10
440.5301075000327
 20
118.686511789751
 30
0.0
 11
439.7801075000327
 21
117.682048486643
 31
0.0
  0
LINE
  5
DE
330
1F
100
AcDbEntity
  8
Sichtbare_Kanten_TC_020513_DIN_
  6
Continuous
 62
     7
100
AcDbLine
 10
440.5301075000327
 20
115.173190614041
 30
0.0
 11
440.5301075000327
 21
118.686511789751
 31
0.0
  0
LINE
  5
DF
330
1F
100
AcDbEntity
  8
Sichtbare_Kanten_TC_020513_DIN_
  6
Continuous
 62
     7
100
AcDbLine
 10
441.0301075000327
 20
119.439190725103
 30
0.0
 11
441.0301075000327
 21
115.173190614041
 31
0.0
  0
LINE
  5
E0
330
1F
100
AcDbEntity
  8
Sichtbare_Kanten_TC_020513_DIN_
  6
Continuous
 62
     7
100
AcDbLine
 10
439.7801075000327
 20
118.517764155274
 30
0.0
 11
440.5797875146575
 21
119.588763127167
 31
0.0
  0
LINE
  5
E1
330
1F
100
AcDbEntity
  8
Sichtbare_Kanten_TC_020513_DIN_
  6
Continuous
 62
     7
100
AcDbLine
 10
438.9804274854078
 20
119.588763127167
 30
0.0
 11
439.7801075000327
 21
118.517764155274
 31
0.0
  0
LINE
  5
E2
330
1F
100
AcDbEntity
  8
Sichtbare_Kanten_TC_020513_DIN_
  6
Continuous
 62
     7
100
AcDbLine
 10
438.5301075000327
 20
116.316190669571
 30
0.0
 11
438.5301075000326
 21
119.439190725103
 31
0.0
  0
LINE
  5
E3
330
1F
100
AcDbEntity
  8
Sichtbare_Kanten_TC_020513_DIN_
  6
Continuous
 62
     7
100
AcDbLine
 10
412.0301075000327
 20
92.3061906695712
 30
0.0
 11
412.0301075000327
 21
96.3061906695712
 31
0.0
  0
LINE
  5
E4
330
1F
100
AcDbEntity
  8
Sichtbare_Kanten_TC_020513_DIN_
  6
Continuous
 62
     7
100
AcDbLine
 10
467.530107500033
 20
92.3061906695712
 30
0.0
 11
412.0301075000327
 21
92.3061906695712
 31
0.0
  0
LINE
  5
E5
330
1F
100
AcDbEntity
  8
Sichtbare_Kanten_TC_020513_DIN_
  6
Continuous
 62
     7
100
AcDbLine
 10
467.530107500033
 20
92.3061906695712
 30
0.0
 11
467.530107500033
 21
96.3061906695712
 31
0.0
  0
LINE
  5
E6
330
1F
100
AcDbEntity
  8
Sichtbare_Kanten_TC_020513_DIN_
  6
Continuous
 62
     7
100
AcDbLine
 10
486.530107500033
 20
92.3061906695712
 30
0.0
 11
477.530107500033
 21
92.3061906695712
 31
0.0
  0
LINE
  5
E7
330
1F
100
AcDbEntity
  8
Sichtbare_Kanten_TC_020513_DIN_
  6
Continuous
 62
     7
100
AcDbLine
 10
477.530107500033
 20
92.3061906695712
 30
0.0
 11
467.530107500033
 21
92.3061906695712
 31
0.0
  0
LINE
  5
E8
330
1F
100
AcDbEntity
  8
Sichtbare_Kanten_TC_020513_DIN_
  6
Continuous
 62
     7
100
AcDbLine
 10
412.0301075000327
 20
92.3061906695712
 30
0.0
 11
402.0301075000327
 21
92.3061906695712
 31
0.0
  0
LINE
  5
E9
330
1F
100
AcDbEntity
  8
Sichtbare_Kanten_TC_020513_DIN_
  6
Continuous
 62
     7
100
AcDbLine
 10
402.0301075000327
 20
92.3061906695712
 30
0.0
 11
393.0301075000326
 21
92.3061906695712
 31
0.0
  0
LINE
  5
EA
330
1F
100
AcDbEntity
  8
Sichtbare_Kanten_TC_020513_DIN_
  6
Continuous
 62
     7
100
AcDbLine
 10
402.0301075000327
 20
96.3061906695712
 30
0.0
 11
393.0301075000326
 21
96.3061906695712
 31
0.0
  0
LINE
  5
EB
330
1F
100
AcDbEntity
  8
Sichtbare_Kanten_TC_020513_DIN_
  6
Continuous
 62
     7
100
AcDbLine
 10
412.0301075000327
 20
96.3061906695712
 30
0.0
 11
402.0301075000327
 21
96.3061906695712
 31
0.0
  0
LINE
  5
EC
330
1F
100
AcDbEntity
  8
Sichtbare_Kanten_TC_020513_DIN_
  6
Continuous
 62
     7
100
AcDbLine
 10
486.530107500033
 20
92.3061906695712
 30
0.0
 11
486.530107500033
 21
96.3061906695712
 31
0.0
  0
LINE
  5
ED
330
1F
100
AcDbEntity
  8
Sichtbare_Kanten_TC_020513_DIN_
  6
Continuous
 62
     7
100
AcDbLine
 10
477.530107500033
 20
96.3061906695712
 30
0.0
 11
467.530107500033
 21
96.3061906695712
 31
0.0
  0
LINE
  5
EE
330
1F
100
AcDbEntity
  8
Sichtbare_Kanten_TC_020513_DIN_
  6
Continuous
 62
     7
100
AcDbLine
 10
486.530107500033
 20
96.3061906695712
 30
0.0
 11
477.530107500033
 21
96.3061906695712
 31
0.0
  0
LINE
  5
EF
330
1F
100
AcDbEntity
  8
Sichtbare_Kanten_TC_020513_DIN_
  6
Continuous
 62
     7
100
AcDbLine
 10
477.530107500033
 20
92.3061906695712
 30
0.0
 11
477.530107500033
 21
96.3061906695712
 31
0.0
  0
LINE
  5
F0
330
1F
100
AcDbEntity
  8
Sichtbare_Kanten_TC_020513_DIN_
  6
Continuous
 62
     7
100
AcDbLine
 10
402.0301075000327
 20
92.3061906695712
 30
0.0
 11
402.0301075000327
 21
96.3061906695712
 31
0.0
  0
LINE
  5
F1
330
1F
100
AcDbEntity
  8
Sichtbare_Kanten_TC_020513_DIN_
  6
Continuous
 62
     7
100
AcDbLine
 10
393.0301075000326
 20
92.3061906695712
 30
0.0
 11
393.0301075000326
 21
96.3061906695712
 31
0.0
  0
LINE
  5
F2
330
1F
100
AcDbEntity
  8
Sichtbare_Kanten_TC_020513_DIN_
  6
Continuous
 62
     7
100
AcDbLine
 10
468.780107500033
 20
145.306190669571
 30
0.0
 11
462.664440692026
 21
145.306190669571
 31
0.0
  0
LINE
  5
F3
330
1F
100
AcDbEntity
  8
Sichtbare_Kanten_TC_020513_DIN_
  6
Continuous
 62
     7
100
AcDbLine
 10
446.955552179696
 20
145.306190669571
 30
0.0
 11
432.6046628203694
 21
145.306190669571
 31
0.0
  0
LINE
  5
F4
330
1F
100
AcDbEntity
  8
Sichtbare_Kanten_TC_020513_DIN_
  6
Continuous
 62
     7
100
AcDbLine
 10
416.8957743080388
 20
145.306190669571
 30
0.0
 11
410.7801075000327
 21
145.306190669571
 31
0.0
  0
LINE
  5
F5
330
1F
100
AcDbEntity
  8
Sichtbare_Kanten_TC_020513_DIN_
  6
Continuous
 62
     7
100
AcDbLine
 10
474.780107500033
 20
96.3061906695712
 30
0.0
 11
474.780107500033
 21
136.306190669571
 31
0.0
  0
LINE
  5
F6
330
1F
100
AcDbEntity
  8
Sichtbare_Kanten_TC_020513_DIN_
  6
Continuous
 62
     7
100
AcDbLine
 10
474.780107500033
 20
143.306190669571
 30
0.0
 11
474.780107500033
 21
145.306190669571
 31
0.0
  0
LINE
  5
F7
330
1F
100
AcDbEntity
  8
Sichtbare_Kanten_TC_020513_DIN_
  6
Continuous
 62
     7
100
AcDbLine
 10
404.7801075000327
 20
96.3061906695712
 30
0.0
 11
404.7801075000327
 21
136.306190669571
 31
0.0
  0
LINE
  5
F8
330
1F
100
AcDbEntity
  8
Sichtbare_Kanten_TC_020513_DIN_
  6
Continuous
 62
     7
100
AcDbLine
 10
404.7801075000327
 20
143.306190669571
 30
0.0
 11
404.7801075000327
 21
145.306190669571
 31
0.0
  0
LINE
  5
F9
330
1F
100
AcDbEntity
  8
Sichtbare_Kanten_TC_020513_DIN_
  6
Continuous
 62
     7
100
AcDbLine
 10
404.7801075000327
 20
145.306190669571
 30
0.0
 11
410.7801075000327
 21
145.306190669571
 31
0.0
  0
LINE
  5
FA
330
1F
100
AcDbEntity
  8
Sichtbare_Kanten_TC_020513_DIN_
  6
Continuous
 62
     7
100
AcDbLine
 10
468.780107500033
 20
145.306190669571
 30
0.0
 11
474.780107500033
 21
145.306190669571
 31
0.0
  0
LINE
  5
FB
330
1F
100
AcDbEntity
  8
Sichtbare_Kanten_TC_020513_DIN_
  6
Continuous
 62
     7
100
AcDbLine
 10
393.0301075000326
 20
108.886190669571
 30
0.0
 11
393.0301075000326
 21
96.3061906695712
 31
0.0
  0
LINE
  5
FC
330
1F
100
AcDbEntity
  8
Sichtbare_Kanten_TC_020513_DIN_
  6
Continuous
 62
     7
100
AcDbLine
 10
393.0301075000326
 20
108.886190669571
 30
0.0
 11
393.0301075000326
 21
121.216190669571
 31
0.0
  0
LINE
  5
FD
330
1F
100
AcDbEntity
  8
Sichtbare_Kanten_TC_020513_DIN_
  6
Continuous
 62
     7
100
AcDbLine
 10
404.7801075000327
 20
121.216190669571
 30
0.0
 11
393.0301075000326
 21
121.216190669571
 31
0.0
  0
LINE
  5
FE
330
1F
100
AcDbEntity
  8
Sichtbare_Kanten_TC_020513_DIN_
  6
Continuous
 62
     7
100
AcDbLine
 10
486.530107500033
 20
108.886190669571
 30
0.0
 11
486.530107500033
 21
121.216190669571
 31
0.0
  0
LINE
  5
FF
330
1F
100
AcDbEntity
  8
Sichtbare_Kanten_TC_020513_DIN_
  6
Continuous
 62
     7
100
AcDbLine
 10
486.530107500033
 20
108.886190669571
 30
0.0
 11
486.530107500033
 21
96.3061906695712
 31
0.0
  0
LINE
  5
100
330
1F
100
AcDbEntity
  8
Sichtbare_Kanten_TC_020513_DIN_
  6
Continuous
 62
     7
100
AcDbLine
 10
486.530107500033
 20
121.216190669571
 30
0.0
 11
474.780107500033
 21
121.216190669571
 31
0.0
  0
LINE
  5
101
330
1F
100
AcDbEntity
  8
Sichtbare_Kanten_TC_020513_DIN_
  6
Continuous
 62
     7
100
AcDbLine
 10
404.9801075000326
 20
149.306190669571
 30
0.0
 11
404.9801075000326
 21
145.306190669571
 31
0.0
  0
LINE
  5
102
330
1F
100
AcDbEntity
  8
Sichtbare_Kanten_TC_020513_DIN_
  6
Continuous
 62
     7
100
AcDbLine
 10
410.7801075000327
 20
149.306190669571
 30
0.0
 11
404.9801075000326
 21
149.306190669571
 31
0.0
  0
LINE
  5
103
330
1F
100
AcDbEntity
  8
Sichtbare_Kanten_TC_020513_DIN_
  6
Continuous
 62
     7
100
AcDbLine
 10
410.7801075000327
 20
149.306190669571
 30
0.0
 11
412.142940537854
 21
149.306190669571
 31
0.0
  0
LINE
  5
104
330
1F
100
AcDbEntity
  8
Sichtbare_Kanten_TC_020513_DIN_
  6
Continuous
 62
     7
100
AcDbLine
 10
423.2801075000327
 20
149.306190669571
 30
0.0
 11
456.280107500033
 21
149.306190669571
 31
0.0
  0
LINE
  5
105
330
1F
100
AcDbEntity
  8
Sichtbare_Kanten_TC_020513_DIN_
  6
Continuous
 62
     7
100
AcDbLine
 10
467.417274462211
 20
149.306190669571
 30
0.0
 11
468.780107500033
 21
149.306190669571
 31
0.0
  0
LINE
  5
106
330
1F
100
AcDbEntity
  8
Sichtbare_Kanten_TC_020513_DIN_
  6
Continuous
 62
     7
100
AcDbLine
 10
474.580107500033
 20
149.306190669571
 30
0.0
 11
474.580107500033
 21
145.306190669571
 31
0.0
  0
LINE
  5
107
330
1F
100
AcDbEntity
  8
Sichtbare_Kanten_TC_020513_DIN_
  6
Continuous
 62
     7
100
AcDbLine
 10
474.580107500033
 20
149.306190669571
 30
0.0
 11
468.780107500033
 21
149.306190669571
 31
0.0
  0
LINE
  5
108
330
1F
100
AcDbEntity
  8
Sichtbare_Kanten_TC_020513_DIN_
  6
Continuous
 62
     7
100
AcDbLine
 10
484.968996388921
 20
130.08955336698
 30
0.0
 11
488.080107500033
 21
130.08955336698
 31
0.0
  0
LINE
  5
109
330
1F
100
AcDbEntity
  8
Sichtbare_Kanten_TC_020513_DIN_
  6
Continuous
 62
     7
100
AcDbLine
 10
484.968996388921
 20
130.08955336698
 30
0.0
 11
484.580107500033
 21
130.08955336698
 31
0.0
  0
LINE
  5
10A
330
1F
100
AcDbEntity
  8
Sichtbare_Kanten_TC_020513_DIN_
  6
Continuous
 62
     7
100
AcDbLine
 10
477.580107500033
 20
130.089553366981
 30
0.0
 11
477.542452585025
 21
130.089553366981
 31
0.0
  0
LINE
  5
10B
330
1F
100
AcDbEntity
  8
Sichtbare_Kanten_TC_020513_DIN_
  6
Continuous
 62
     7
100
AcDbLine
 10
488.080107500033
 20
130.08955336698
 30
0.0
 11
488.080107500033
 21
131.48955336698
 31
0.0
  0
LINE
  5
10C
330
1F
100
AcDbEntity
  8
Sichtbare_Kanten_TC_020513_DIN_
  6
Continuous
 62
     7
100
AcDbLine
 10
477.580107500033
 20
131.489553366981
 30
0.0
 11
477.542452585025
 21
131.48955336698
 31
0.0
  0
LINE
  5
10D
330
1F
100
AcDbEntity
  8
Sichtbare_Kanten_TC_020513_DIN_
  6
Continuous
 62
     7
100
AcDbLine
 10
484.968996388921
 20
131.48955336698
 30
0.0
 11
484.580107500033
 21
131.48955336698
 31
0.0
  0
LINE
  5
10E
330
1F
100
AcDbEntity
  8
Sichtbare_Kanten_TC_020513_DIN_
  6
Continuous
 62
     7
100
AcDbLine
 10
484.968996388921
 20
131.48955336698
 30
0.0
 11
488.080107500033
 21
131.48955336698
 31
0.0
  0
LINE
  5
10F
330
1F
100
AcDbEntity
  8
Sichtbare_Kanten_TC_020513_DIN_
  6
Continuous
 62
     7
100
AcDbLine
 10
484.580107500033
 20
132.88955336698
 30
0.0
 11
484.580107500033
 21
135.306190669571
 31
0.0
  0
LINE
  5
110
330
1F
100
AcDbEntity
  8
Sichtbare_Kanten_TC_020513_DIN_
  6
Continuous
 62
     7
100
AcDbLine
 10
476.580107500033
 20
143.306190669571
 30
0.0
 11
463.280107500033
 21
143.306190669571
 31
0.0
  0
LINE
  5
111
330
1F
100
AcDbEntity
  8
Sichtbare_Kanten_TC_020513_DIN_
  6
Continuous
 62
     7
100
AcDbLine
 10
446.280107500033
 20
142.306190669571
 30
0.0
 11
446.280107500033
 21
128.806190669571
 31
0.0
  0
LINE
  5
112
330
1F
100
AcDbEntity
  8
Sichtbare_Kanten_TC_020513_DIN_
  6
Continuous
 62
     7
100
AcDbLine
 10
465.280107500033
 20
136.306190669571
 30
0.0
 11
476.580107500033
 21
136.306190669571
 31
0.0
  0
LINE
  5
113
330
1F
100
AcDbEntity
  8
Sichtbare_Kanten_TC_020513_DIN_
  6
Continuous
 62
     7
100
AcDbLine
 10
477.580107500033
 20
135.306190669571
 30
0.0
 11
477.580107500033
 21
132.88955336698
 31
0.0
  0
LINE
  5
114
330
1F
100
AcDbEntity
  8
Sichtbare_Kanten_TC_020513_DIN_
  6
Continuous
 62
     7
100
AcDbLine
 10
477.442452585025
 20
129.151898451973
 30
0.0
 11
476.042452585025
 21
129.151898451973
 31
0.0
  0
LINE
  5
115
330
1F
100
AcDbEntity
  8
Sichtbare_Kanten_TC_020513_DIN_
  6
Continuous
 62
     7
100
AcDbLine
 10
476.042452585025
 20
129.98955336698
 30
0.0
 11
476.042452585025
 21
129.151898451973
 31
0.0
  0
LINE
  5
116
330
1F
100
AcDbEntity
  8
Sichtbare_Kanten_TC_020513_DIN_
  6
Continuous
 62
     7
100
AcDbLine
 10
477.442452585025
 20
129.98955336698
 30
0.0
 11
477.442452585025
 21
129.151898451973
 31
0.0
  0
LINE
  5
117
330
1F
100
AcDbEntity
  8
Sichtbare_Kanten_TC_020513_DIN_
  6
Continuous
 62
     7
100
AcDbLine
 10
484.580107500033
 20
130.08955336698
 30
0.0
 11
477.580107500033
 21
130.089553366981
 31
0.0
  0
LINE
  5
118
330
1F
100
AcDbEntity
  8
Sichtbare_Kanten_TC_020513_DIN_
  6
Continuous
 62
     7
100
AcDbLine
 10
477.580107500033
 20
130.089553366981
 30
0.0
 11
477.580107500033
 21
132.88955336698
 31
0.0
  0
LINE
  5
119
330
1F
100
AcDbEntity
  8
Sichtbare_Kanten_TC_020513_DIN_
  6
Continuous
 62
     7
100
AcDbLine
 10
484.580107500033
 20
132.88955336698
 30
0.0
 11
484.580107500033
 21
130.08955336698
 31
0.0
  0
LINE
  5
11A
330
1F
100
AcDbEntity
  8
Sichtbare_Kanten_TC_020513_DIN_
  6
Continuous
 62
     7
100
AcDbLine
 10
401.9801075000326
 20
130.089553366981
 30
0.0
 11
402.0177624150401
 21
130.089553366981
 31
0.0
  0
LINE
  5
11B
330
1F
100
AcDbEntity
  8
Sichtbare_Kanten_TC_020513_DIN_
  6
Continuous
 62
     7
100
AcDbLine
 10
394.5912186111438
 20
130.089553366981
 30
0.0
 11
394.9801075000326
 21
130.089553366981
 31
0.0
  0
LINE
  5
11C
330
1F
100
AcDbEntity
  8
Sichtbare_Kanten_TC_020513_DIN_
  6
Continuous
 62
     7
100
AcDbLine
 10
394.5912186111438
 20
130.089553366981
 30
0.0
 11
391.4801075000327
 21
130.089553366981
 31
0.0
  0
LINE
  5
11D
330
1F
100
AcDbEntity
  8
Sichtbare_Kanten_TC_020513_DIN_
  6
Continuous
 62
     7
100
AcDbLine
 10
402.1177624150401
 20
129.151898451973
 30
0.0
 11
403.5177624150402
 21
129.151898451973
 31
0.0
  0
LINE
  5
11E
330
1F
100
AcDbEntity
  8
Sichtbare_Kanten_TC_020513_DIN_
  6
Continuous
 62
     7
100
AcDbLine
 10
403.5177624150401
 20
129.98955336698
 30
0.0
 11
403.5177624150402
 21
129.151898451973
 31
0.0
  0
LINE
  5
11F
330
1F
100
AcDbEntity
  8
Sichtbare_Kanten_TC_020513_DIN_
  6
Continuous
 62
     7
100
AcDbLine
 10
402.1177624150402
 20
129.98955336698
 30
0.0
 11
402.1177624150401
 21
129.151898451973
 31
0.0
  0
LINE
  5
120
330
1F
100
AcDbEntity
  8
Sichtbare_Kanten_TC_020513_DIN_
  6
Continuous
 62
     7
100
AcDbLine
 10
401.9801075000326
 20
131.489553366981
 30
0.0
 11
402.0177624150401
 21
131.48955336698
 31
0.0
  0
LINE
  5
121
330
1F
100
AcDbEntity
  8
Sichtbare_Kanten_TC_020513_DIN_
  6
Continuous
 62
     7
100
AcDbLine
 10
394.5912186111438
 20
131.48955336698
 30
0.0
 11
391.4801075000327
 21
131.489553366981
 31
0.0
  0
LINE
  5
122
330
1F
100
AcDbEntity
  8
Sichtbare_Kanten_TC_020513_DIN_
  6
Continuous
 62
     7
100
AcDbLine
 10
394.5912186111438
 20
131.48955336698
 30
0.0
 11
394.9801075000326
 21
131.48955336698
 31
0.0
  0
LINE
  5
123
330
1F
100
AcDbEntity
  8
Sichtbare_Kanten_TC_020513_DIN_
  6
Continuous
 62
     7
100
AcDbLine
 10
401.9801075000326
 20
135.306190669571
 30
0.0
 11
401.9801075000326
 21
132.88955336698
 31
0.0
  0
LINE
  5
124
330
1F
100
AcDbEntity
  8
Sichtbare_Kanten_TC_020513_DIN_
  6
Continuous
 62
     7
100
AcDbLine
 10
414.2801075000327
 20
136.306190669571
 30
0.0
 11
402.9801075000326
 21
136.306190669571
 31
0.0
  0
LINE
  5
125
330
1F
100
AcDbEntity
  8
Sichtbare_Kanten_TC_020513_DIN_
  6
Continuous
 62
     7
100
AcDbLine
 10
433.2801075000326
 20
142.306190669571
 30
0.0
 11
433.2801075000327
 21
128.806190669571
 31
0.0
  0
LINE
  5
126
330
1F
100
AcDbEntity
  8
Sichtbare_Kanten_TC_020513_DIN_
  6
Continuous
 62
     7
100
AcDbLine
 10
402.9801075000326
 20
143.306190669571
 30
0.0
 11
416.2801075000327
 21
143.306190669571
 31
0.0
  0
LINE
  5
127
330
1F
100
AcDbEntity
  8
Sichtbare_Kanten_TC_020513_DIN_
  6
Continuous
 62
     7
100
AcDbLine
 10
394.9801075000326
 20
132.88955336698
 30
0.0
 11
394.9801075000327
 21
135.306190669571
 31
0.0
  0
LINE
  5
128
330
1F
100
AcDbEntity
  8
Sichtbare_Kanten_TC_020513_DIN_
  6
Continuous
 62
     7
100
AcDbLine
 10
391.4801075000327
 20
130.089553366981
 30
0.0
 11
391.4801075000327
 21
131.489553366981
 31
0.0
  0
LINE
  5
129
330
1F
100
AcDbEntity
  8
Sichtbare_Kanten_TC_020513_DIN_
  6
Continuous
 62
     7
100
AcDbLine
 10
404.2546619736036
 20
162.149651938361
 30
0.0
 11
400.9134701974419
 21
160.102432253763
 31
0.0
  0
LINE
  5
12A
330
1F
100
AcDbEntity
  8
Sichtbare_Kanten_TC_020513_DIN_
  6
Continuous
 62
     7
100
AcDbLine
 10
430.7801075000326
 20
132.168535754564
 30
0.0
 11
430.7801075000326
 21
132.207578488437
 31
0.0
  0
LINE
  5
12B
330
1F
100
AcDbEntity
  8
Sichtbare_Kanten_TC_020513_DIN_
  6
Continuous
 62
     7
100
AcDbLine
 10
423.2801075000327
 20
148.630745989908
 30
0.0
 11
423.2801075000327
 21
150.306190669571
 31
0.0
  0
LINE
  5
12C
330
1F
100
AcDbEntity
  8
Sichtbare_Kanten_TC_020513_DIN_
  6
Continuous
 62
     7
100
AcDbLine
 10
423.2801075000327
 20
150.306190669571
 30
0.0
 11
421.0512295636964
 21
153.52132520027
 31
0.0
  0
LINE
  5
12D
330
1F
100
AcDbEntity
  8
Sichtbare_Kanten_TC_020513_DIN_
  6
Continuous
 62
     7
100
AcDbLine
 10
420.993105544363
 20
153.979400936585
 30
0.0
 11
422.0587505528566
 21
156.865083072699
 31
0.0
  0
LINE
  5
12E
330
1F
100
AcDbEntity
  8
Sichtbare_Kanten_TC_020513_DIN_
  6
Continuous
 62
     7
100
AcDbLine
 10
430.5403891808608
 20
167.306190669571
 30
0.0
 11
422.5403891808608
 21
167.306190669571
 31
0.0
  0
LINE
  5
12F
330
1F
100
AcDbEntity
  8
Sichtbare_Kanten_TC_020513_DIN_
  6
Continuous
 62
     7
100
AcDbLine
 10
400.9134701974419
 20
149.667176004566
 30
0.0
 11
402.2801075000327
 21
149.667176004566
 31
0.0
  0
LINE
  5
130
330
1F
100
AcDbEntity
  8
Sichtbare_Kanten_TC_020513_DIN_
  6
Continuous
 62
     7
100
AcDbLine
 10
403.0644070262183
 20
150.046793660181
 30
0.0
 11
405.8879577369398
 21
153.616381841764
 31
0.0
  0
LINE
  5
131
330
1F
100
AcDbEntity
  8
Sichtbare_Kanten_TC_020513_DIN_
  6
Continuous
 62
     7
100
AcDbLine
 10
406.5902986722253
 20
153.698340432664
 30
0.0
 11
416.7040555614598
 21
145.698340432664
 31
0.0
  0
LINE
  5
132
330
1F
100
AcDbEntity
  8
Sichtbare_Kanten_TC_020513_DIN_
  6
Continuous
 62
     7
100
AcDbLine
 10
416.891961738313
 20
145.349768540945
 30
0.0
 11
417.0190620936386
 21
143.897004831874
 31
0.0
  0
LINE
  5
133
330
1F
100
AcDbEntity
  8
Sichtbare_Kanten_TC_020513_DIN_
  6
Continuous
 62
     7
100
AcDbLine
 10
427.8439668383982
 20
132.306190669571
 30
0.0
 11
427.8801075000326
 21
132.306190669571
 31
0.0
  0
LINE
  5
134
330
1F
100
AcDbEntity
  8
Sichtbare_Kanten_TC_020513_DIN_
  6
Continuous
 62
     7
100
AcDbLine
 10
427.8801075000326
 20
132.306190669571
 30
0.0
 11
427.8801075000326
 21
132.168535754564
 31
0.0
  0
LINE
  5
135
330
1F
100
AcDbEntity
  8
Sichtbare_Kanten_TC_020513_DIN_
  6
Continuous
 62
     7
100
AcDbLine
 10
399.5134701974419
 20
149.481880765842
 30
0.0
 11
399.5134701974419
 21
148.106998976069
 31
0.0
  0
LINE
  5
136
330
1F
100
AcDbEntity
  8
Sichtbare_Kanten_TC_020513_DIN_
  6
Continuous
 62
     7
100
AcDbLine
 10
398.1134701974419
 20
148.106998976069
 30
0.0
 11
398.1134701974419
 21
149.481880765842
 31
0.0
  0
LINE
  5
137
330
1F
100
AcDbEntity
  8
Sichtbare_Kanten_TC_020513_DIN_
  6
Continuous
 62
     7
100
AcDbLine
 10
399.5134701974419
 20
149.667176004566
 30
0.0
 11
399.5134701974419
 21
149.481880765842
 31
0.0
  0
LINE
  5
138
330
1F
100
AcDbEntity
  8
Sichtbare_Kanten_TC_020513_DIN_
  6
Continuous
 62
     7
100
AcDbLine
 10
398.1134701974419
 20
149.481880765842
 30
0.0
 11
398.1134701974419
 21
149.667176004566
 31
0.0
  0
LINE
  5
139
330
1F
100
AcDbEntity
  8
Sichtbare_Kanten_TC_020513_DIN_
  6
Continuous
 62
     7
100
AcDbLine
 10
391.7791948046461
 20
160.883813307157
 30
0.0
 11
390.2968328948511
 21
160.883813307157
 31
0.0
  0
LINE
  5
13A
330
1F
100
AcDbEntity
  8
Sichtbare_Kanten_TC_020513_DIN_
  6
Continuous
 62
     7
100
AcDbLine
 10
390.2968328948511
 20
159.483813307157
 30
0.0
 11
390.2968328948511
 21
160.883813307157
 31
0.0
  0
LINE
  5
13B
330
1F
100
AcDbEntity
  8
Sichtbare_Kanten_TC_020513_DIN_
  6
Continuous
 62
     7
100
AcDbLine
 10
390.2968328948511
 20
159.483813307157
 30
0.0
 11
391.7791948046461
 21
159.483813307157
 31
0.0
  0
LINE
  5
13C
330
1F
100
AcDbEntity
  8
Sichtbare_Kanten_TC_020513_DIN_
  6
Continuous
 62
     7
100
AcDbLine
 10
391.7791948046461
 20
160.883813307157
 30
0.0
 11
396.7134701974419
 21
160.883813307157
 31
0.0
  0
LINE
  5
13D
330
1F
100
AcDbEntity
  8
Sichtbare_Kanten_TC_020513_DIN_
  6
Continuous
 62
     7
100
AcDbLine
 10
396.7134701974419
 20
159.483813307157
 30
0.0
 11
391.7791948046461
 21
159.483813307157
 31
0.0
  0
LINE
  5
13E
330
1F
100
AcDbEntity
  8
Sichtbare_Kanten_TC_020513_DIN_
  6
Continuous
 62
     7
100
AcDbLine
 10
427.8801075000326
 20
132.068535754564
 30
0.0
 11
427.8801075000326
 21
130.668535754564
 31
0.0
  0
LINE
  5
13F
330
1F
100
AcDbEntity
  8
Sichtbare_Kanten_TC_020513_DIN_
  6
Continuous
 62
     7
100
AcDbLine
 10
427.8801075000326
 20
130.668535754564
 30
0.0
 11
428.3801075000326
 21
130.668535754564
 31
0.0
  0
LINE
  5
140
330
1F
100
AcDbEntity
  8
Sichtbare_Kanten_TC_020513_DIN_
  6
Continuous
 62
     7
100
AcDbLine
 10
428.3801075000326
 20
132.068535754564
 30
0.0
 11
427.8801075000326
 21
132.068535754564
 31
0.0
  0
LINE
  5
141
330
1F
100
AcDbEntity
  8
Sichtbare_Kanten_TC_020513_DIN_
  6
Continuous
 62
     7
100
AcDbLine
 10
430.2801075000327
 20
130.668535754564
 30
0.0
 11
428.3801075000326
 21
130.668535754564
 31
0.0
  0
LINE
  5
142
330
1F
100
AcDbEntity
  8
Sichtbare_Kanten_TC_020513_DIN_
  6
Continuous
 62
     7
100
AcDbLine
 10
428.3801075000326
 20
132.068535754564
 30
0.0
 11
430.2801075000327
 21
132.068535754564
 31
0.0
  0
LINE
  5
143
330
1F
100
AcDbEntity
  8
Sichtbare_Kanten_TC_020513_DIN_
  6
Continuous
 62
     7
100
AcDbLine
 10
430.2801075000327
 20
130.668535754564
 30
0.0
 11
430.7801075000327
 21
130.668535754564
 31
0.0
  0
LINE
  5
144
330
1F
100
AcDbEntity
  8
Sichtbare_Kanten_TC_020513_DIN_
  6
Continuous
 62
     7
100
AcDbLine
 10
430.7801075000326
 20
132.068535754564
 30
0.0
 11
430.7801075000327
 21
130.668535754564
 31
0.0
  0
LINE
  5
145
330
1F
100
AcDbEntity
  8
Sichtbare_Kanten_TC_020513_DIN_
  6
Continuous
 62
     7
100
AcDbLine
 10
430.7801075000326
 20
132.068535754564
 30
0.0
 11
430.2801075000327
 21
132.068535754564
 31
0.0
  0
LINE
  5
146
330
1F
100
AcDbEntity
  8
Sichtbare_Kanten_TC_020513_DIN_
  6
Continuous
 62
     7
100
AcDbLine
 10
396.056063126909
 20
140.071820530892
 30
0.0
 11
396.6825363404971
 21
141.415296672946
 31
0.0
  0
LINE
  5
147
330
1F
100
AcDbEntity
  8
Sichtbare_Kanten_TC_020513_DIN_
  6
Continuous
 62
     7
100
AcDbLine
 10
395.4137054386458
 20
142.006962239383
 30
0.0
 11
394.7872322250576
 21
140.663486097329
 31
0.0
  0
LINE
  5
148
330
1F
100
AcDbEntity
  8
Sichtbare_Kanten_TC_020513_DIN_
  6
Continuous
 62
     7
100
AcDbLine
 10
394.7872322250576
 20
140.663486097329
 30
0.0
 11
396.056063126909
 21
140.071820530892
 31
0.0
  0
LINE
  5
149
330
1F
100
AcDbEntity
  8
Sichtbare_Kanten_TC_020513_DIN_
  6
Continuous
 62
     7
100
AcDbLine
 10
395.4137054386458
 20
142.006962239383
 30
0.0
 11
397.9823010992932
 21
147.515333409632
 31
0.0
  0
LINE
  5
14A
330
1F
100
AcDbEntity
  8
Sichtbare_Kanten_TC_020513_DIN_
  6
Continuous
 62
     7
100
AcDbLine
 10
399.2511320011445
 20
146.923667843195
 30
0.0
 11
396.6825363404971
 21
141.415296672946
 31
0.0
  0
LINE
  5
14B
330
1F
100
AcDbEntity
  8
Sichtbare_Kanten_TC_020513_DIN_
  6
Continuous
 62
     7
100
AcDbLine
 10
401.9801075000326
 20
130.089553366981
 30
0.0
 11
394.9801075000326
 21
130.089553366981
 31
0.0
  0
LINE
  5
14C
330
1F
100
AcDbEntity
  8
Sichtbare_Kanten_TC_020513_DIN_
  6
Continuous
 62
     7
100
AcDbLine
 10
394.9801075000326
 20
130.089553366981
 30
0.0
 11
394.9801075000326
 21
132.88955336698
 31
0.0
  0
LINE
  5
14D
330
1F
100
AcDbEntity
  8
Sichtbare_Kanten_TC_020513_DIN_
  6
Continuous
 62
     7
100
AcDbLine
 10
401.9801075000326
 20
132.88955336698
 30
0.0
 11
401.9801075000326
 21
130.089553366981
 31
0.0
  0
LINE
  5
14E
330
1F
100
AcDbEntity
  8
Sichtbare_Kanten_TC_020513_DIN_
  6
Continuous
 62
     7
100
AcDbLine
 10
481.019624812009
 20
147.254998932077
 30
0.0
 11
480.309082998921
 21
146.923667843195
 31
0.0
  0
LINE
  5
14F
330
1F
100
AcDbEntity
  8
Sichtbare_Kanten_TC_020513_DIN_
  6
Continuous
 62
     7
100
AcDbLine
 10
481.577913900772
 20
147.515333409632
 30
0.0
 11
481.019624812009
 21
147.254998932077
 31
0.0
  0
LINE
  5
150
330
1F
100
AcDbEntity
  8
Sichtbare_Kanten_TC_020513_DIN_
  6
Continuous
 62
     7
100
AcDbLine
 10
480.830740949686
 20
148.106998976069
 30
0.0
 11
481.446744802623
 21
148.106998976069
 31
0.0
  0
LINE
  5
151
330
1F
100
AcDbEntity
  8
Sichtbare_Kanten_TC_020513_DIN_
  6
Continuous
 62
     7
100
AcDbLine
 10
480.046744802623
 20
148.106998976069
 30
0.0
 11
480.830740949686
 21
148.106998976069
 31
0.0
  0
LINE
  5
152
330
1F
100
AcDbEntity
  8
Sichtbare_Kanten_TC_020513_DIN_
  6
Continuous
 62
     7
100
AcDbLine
 10
448.780107500033
 20
132.168535754564
 30
0.0
 11
448.780107500033
 21
132.068535754564
 31
0.0
  0
LINE
  5
153
330
1F
100
AcDbEntity
  8
Sichtbare_Kanten_TC_020513_DIN_
  6
Continuous
 62
     7
100
AcDbLine
 10
451.680107500033
 20
132.068535754564
 30
0.0
 11
451.680107500033
 21
132.168535754564
 31
0.0
  0
LINE
  5
154
330
1F
100
AcDbEntity
  8
Sichtbare_Kanten_TC_020513_DIN_
  6
Continuous
 62
     7
100
AcDbLine
 10
451.680107500033
 20
132.306190669571
 30
0.0
 11
451.680107500033
 21
132.168535754564
 31
0.0
  0
LINE
  5
155
330
1F
100
AcDbEntity
  8
Sichtbare_Kanten_TC_020513_DIN_
  6
Continuous
 62
     7
100
AcDbLine
 10
451.716248161667
 20
132.306190669571
 30
0.0
 11
451.680107500033
 21
132.306190669571
 31
0.0
  0
LINE
  5
156
330
1F
100
AcDbEntity
  8
Sichtbare_Kanten_TC_020513_DIN_
  6
Continuous
 62
     7
100
AcDbLine
 10
462.668253261752
 20
145.349768540945
 30
0.0
 11
462.541152906427
 21
143.897004831874
 31
0.0
  0
LINE
  5
157
330
1F
100
AcDbEntity
  8
Sichtbare_Kanten_TC_020513_DIN_
  6
Continuous
 62
     7
100
AcDbLine
 10
472.96991632784
 20
153.698340432664
 30
0.0
 11
462.856159438605
 21
145.698340432664
 31
0.0
  0
LINE
  5
158
330
1F
100
AcDbEntity
  8
Sichtbare_Kanten_TC_020513_DIN_
  6
Continuous
 62
     7
100
AcDbLine
 10
476.495807973847
 20
150.046793660181
 30
0.0
 11
473.672257263125
 21
153.616381841764
 31
0.0
  0
LINE
  5
159
330
1F
100
AcDbEntity
  8
Sichtbare_Kanten_TC_020513_DIN_
  6
Continuous
 62
     7
100
AcDbLine
 10
478.646744802623
 20
149.667176004566
 30
0.0
 11
477.280107500033
 21
149.667176004566
 31
0.0
  0
LINE
  5
15A
330
1F
100
AcDbEntity
  8
Sichtbare_Kanten_TC_020513_DIN_
  6
Continuous
 62
     7
100
AcDbLine
 10
475.305553026462
 20
162.149651938361
 30
0.0
 11
478.646744802623
 21
160.102432253763
 31
0.0
  0
LINE
  5
15B
330
1F
100
AcDbEntity
  8
Sichtbare_Kanten_TC_020513_DIN_
  6
Continuous
 62
     7
100
AcDbLine
 10
449.019825819205
 20
167.306190669571
 30
0.0
 11
457.019825819204
 21
167.306190669571
 31
0.0
  0
LINE
  5
15C
330
1F
100
AcDbEntity
  8
Sichtbare_Kanten_TC_020513_DIN_
  6
Continuous
 62
     7
100
AcDbLine
 10
458.567109455702
 20
153.979400936585
 30
0.0
 11
457.501464447209
 21
156.865083072699
 31
0.0
  0
LINE
  5
15D
330
1F
100
AcDbEntity
  8
Sichtbare_Kanten_TC_020513_DIN_
  6
Continuous
 62
     7
100
AcDbLine
 10
456.280107500033
 20
150.306190669571
 30
0.0
 11
458.508985436369
 21
153.52132520027
 31
0.0
  0
LINE
  5
15E
330
1F
100
AcDbEntity
  8
Sichtbare_Kanten_TC_020513_DIN_
  6
Continuous
 62
     7
100
AcDbLine
 10
456.280107500033
 20
148.630745989908
 30
0.0
 11
456.280107500033
 21
150.306190669571
 31
0.0
  0
LINE
  5
15F
330
1F
100
AcDbEntity
  8
Sichtbare_Kanten_TC_020513_DIN_
  6
Continuous
 62
     7
100
AcDbLine
 10
448.780107500033
 20
132.168535754564
 30
0.0
 11
448.780107500033
 21
132.207578488437
 31
0.0
  0
LINE
  5
160
330
1F
100
AcDbEntity
  8
Sichtbare_Kanten_TC_020513_DIN_
  6
Continuous
 62
     7
100
AcDbLine
 10
481.446744802623
 20
148.106998976069
 30
0.0
 11
481.446744802623
 21
149.481880765842
 31
0.0
  0
LINE
  5
161
330
1F
100
AcDbEntity
  8
Sichtbare_Kanten_TC_020513_DIN_
  6
Continuous
 62
     7
100
AcDbLine
 10
480.046744802623
 20
149.481880765842
 30
0.0
 11
480.046744802623
 21
148.106998976069
 31
0.0
  0
LINE
  5
162
330
1F
100
AcDbEntity
  8
Sichtbare_Kanten_TC_020513_DIN_
  6
Continuous
 62
     7
100
AcDbLine
 10
480.046744802623
 20
149.667176004566
 30
0.0
 11
480.046744802623
 21
149.481880765842
 31
0.0
  0
LINE
  5
163
330
1F
100
AcDbEntity
  8
Sichtbare_Kanten_TC_020513_DIN_
  6
Continuous
 62
     7
100
AcDbLine
 10
481.446744802623
 20
149.481880765842
 30
0.0
 11
481.446744802623
 21
149.667176004566
 31
0.0
  0
LINE
  5
164
330
1F
100
AcDbEntity
  8
Sichtbare_Kanten_TC_020513_DIN_
  6
Continuous
 62
     7
100
AcDbLine
 10
487.781020195419
 20
160.883813307157
 30
0.0
 11
489.263382105214
 21
160.883813307157
 31
0.0
  0
LINE
  5
165
330
1F
100
AcDbEntity
  8
Sichtbare_Kanten_TC_020513_DIN_
  6
Continuous
 62
     7
100
AcDbLine
 10
489.263382105214
 20
159.483813307157
 30
0.0
 11
487.781020195419
 21
159.483813307157
 31
0.0
  0
LINE
  5
166
330
1F
100
AcDbEntity
  8
Sichtbare_Kanten_TC_020513_DIN_
  6
Continuous
 62
     7
100
AcDbLine
 10
489.263382105214
 20
159.483813307157
 30
0.0
 11
489.263382105214
 21
160.883813307157
 31
0.0
  0
LINE
  5
167
330
1F
100
AcDbEntity
  8
Sichtbare_Kanten_TC_020513_DIN_
  6
Continuous
 62
     7
100
AcDbLine
 10
482.846744802623
 20
159.483813307157
 30
0.0
 11
487.781020195419
 21
159.483813307157
 31
0.0
  0
LINE
  5
168
330
1F
100
AcDbEntity
  8
Sichtbare_Kanten_TC_020513_DIN_
  6
Continuous
 62
     7
100
AcDbLine
 10
487.781020195419
 20
160.883813307157
 30
0.0
 11
482.846744802623
 21
160.883813307157
 31
0.0
  0
LINE
  5
169
330
1F
100
AcDbEntity
  8
Sichtbare_Kanten_TC_020513_DIN_
  6
Continuous
 62
     7
100
AcDbLine
 10
451.680107500033
 20
130.668535754564
 30
0.0
 11
451.180107500033
 21
130.668535754564
 31
0.0
  0
LINE
  5
16A
330
1F
100
AcDbEntity
  8
Sichtbare_Kanten_TC_020513_DIN_
  6
Continuous
 62
     7
100
AcDbLine
 10
451.680107500033
 20
132.068535754564
 30
0.0
 11
451.680107500033
 21
130.668535754564
 31
0.0
  0
LINE
  5
16B
330
1F
100
AcDbEntity
  8
Sichtbare_Kanten_TC_020513_DIN_
  6
Continuous
 62
     7
100
AcDbLine
 10
451.180107500033
 20
132.068535754564
 30
0.0
 11
451.680107500033
 21
132.068535754564
 31
0.0
  0
LINE
  5
16C
330
1F
100
AcDbEntity
  8
Sichtbare_Kanten_TC_020513_DIN_
  6
Continuous
 62
     7
100
AcDbLine
 10
449.280107500033
 20
130.668535754564
 30
0.0
 11
451.180107500033
 21
130.668535754564
 31
0.0
  0
LINE
  5
16D
330
1F
100
AcDbEntity
  8
Sichtbare_Kanten_TC_020513_DIN_
  6
Continuous
 62
     7
100
AcDbLine
 10
451.180107500033
 20
132.068535754564
 30
0.0
 11
449.280107500033
 21
132.068535754564
 31
0.0
  0
LINE
  5
16E
330
1F
100
AcDbEntity
  8
Sichtbare_Kanten_TC_020513_DIN_
  6
Continuous
 62
     7
100
AcDbLine
 10
449.280107500033
 20
130.668535754564
 30
0.0
 11
448.780107500033
 21
130.668535754564
 31
0.0
  0
LINE
  5
16F
330
1F
100
AcDbEntity
  8
Sichtbare_Kanten_TC_020513_DIN_
  6
Continuous
 62
     7
100
AcDbLine
 10
448.780107500033
 20
132.068535754564
 30
0.0
 11
449.280107500033
 21
132.068535754564
 31
0.0
  0
LINE
  5
170
330
1F
100
AcDbEntity
  8
Sichtbare_Kanten_TC_020513_DIN_
  6
Continuous
 62
     7
100
AcDbLine
 10
448.780107500033
 20
132.068535754564
 30
0.0
 11
448.780107500033
 21
130.668535754564
 31
0.0
  0
LINE
  5
171
330
1F
100
AcDbEntity
  8
Sichtbare_Kanten_TC_020513_DIN_
  6
Continuous
 62
     7
100
AcDbLine
 10
483.504151873156
 20
140.071820530892
 30
0.0
 11
482.877678659568
 21
141.415296672946
 31
0.0
  0
LINE
  5
172
330
1F
100
AcDbEntity
  8
Sichtbare_Kanten_TC_020513_DIN_
  6
Continuous
 62
     7
100
AcDbLine
 10
484.772982775008
 20
140.663486097329
 30
0.0
 11
483.504151873156
 21
140.071820530892
 31
0.0
  0
LINE
  5
173
330
1F
100
AcDbEntity
  8
Sichtbare_Kanten_TC_020513_DIN_
  6
Continuous
 62
     7
100
AcDbLine
 10
484.14650956142
 20
142.006962239383
 30
0.0
 11
484.772982775008
 21
140.663486097329
 31
0.0
  0
LINE
  5
174
330
1F
100
AcDbEntity
  8
Sichtbare_Kanten_TC_020513_DIN_
  6
Continuous
 62
     7
100
AcDbLine
 10
480.309082998921
 20
146.923667843195
 30
0.0
 11
482.877678659568
 21
141.415296672946
 31
0.0
  0
LINE
  5
175
330
1F
100
AcDbEntity
  8
Sichtbare_Kanten_TC_020513_DIN_
  6
Continuous
 62
     7
100
AcDbLine
 10
484.14650956142
 20
142.006962239383
 30
0.0
 11
481.577913900772
 21
147.515333409632
 31
0.0
  0
LINE
  5
176
330
1F
100
AcDbEntity
  8
Sichtbare_Kanten_TC_020513_DIN_
  6
Continuous
 62
     7
100
AcDbLine
 10
482.846744802623
 20
160.099814437438
 30
0.0
 11
482.846744802623
 21
159.483813307157
 31
0.0
  0
LINE
  5
177
330
1F
100
AcDbEntity
  8
Sichtbare_Kanten_TC_020513_DIN_
  6
Continuous
 62
     7
100
AcDbLine
 10
482.846744802623
 20
160.883813307157
 30
0.0
 11
482.846744802623
 21
160.099814437438
 31
0.0
  0
LINE
  5
178
330
1F
100
AcDbEntity
  8
Sichtbare_Kanten_TC_020513_DIN_
  6
Continuous
 62
     7
100
AcDbLine
 10
480.139243450209
 20
159.667176004566
 30
0.0
 11
481.086893736978
 21
159.667176004566
 31
0.0
  0
LINE
  5
179
330
1F
100
AcDbEntity
  8
Sichtbare_Kanten_TC_020513_DIN_
  6
Continuous
 62
     7
100
AcDbLine
 10
481.446744802623
 20
149.667176004566
 30
0.0
 11
478.646744802623
 21
149.667176004566
 31
0.0
  0
LINE
  5
17A
330
1F
100
AcDbEntity
  8
Sichtbare_Kanten_TC_020513_DIN_
  6
Continuous
 62
     7
100
AcDbLine
 10
481.446744802623
 20
158.991386124336
 30
0.0
 11
481.446744802623
 21
149.667176004566
 31
0.0
  0
LINE
  5
17B
330
1F
100
AcDbEntity
  8
Sichtbare_Kanten_TC_020513_DIN_
  6
Continuous
 62
     7
100
AcDbLine
 10
398.5405901880527
 20
147.254998932079
 30
0.0
 11
397.9823010992932
 21
147.515333409632
 31
0.0
  0
LINE
  5
17C
330
1F
100
AcDbEntity
  8
Sichtbare_Kanten_TC_020513_DIN_
  6
Continuous
 62
     7
100
AcDbLine
 10
399.2511320011445
 20
146.923667843195
 30
0.0
 11
398.5405901880527
 21
147.254998932079
 31
0.0
  0
LINE
  5
17D
330
1F
100
AcDbEntity
  8
Sichtbare_Kanten_TC_020513_DIN_
  6
Continuous
 62
     7
100
AcDbLine
 10
398.7294740503781
 20
148.106998976069
 30
0.0
 11
399.5134701974419
 21
148.106998976069
 31
0.0
  0
LINE
  5
17E
330
1F
100
AcDbEntity
  8
Sichtbare_Kanten_TC_020513_DIN_
  6
Continuous
 62
     7
100
AcDbLine
 10
398.1134701974419
 20
148.106998976069
 30
0.0
 11
398.7294740503781
 21
148.106998976069
 31
0.0
  0
LINE
  5
17F
330
1F
100
AcDbEntity
  8
Sichtbare_Kanten_TC_020513_DIN_
  6
Continuous
 62
     7
100
AcDbLine
 10
427.8801075000326
 20
132.168535754564
 30
0.0
 11
427.8801075000326
 21
132.068535754564
 31
0.0
  0
LINE
  5
180
330
1F
100
AcDbEntity
  8
Sichtbare_Kanten_TC_020513_DIN_
  6
Continuous
 62
     7
100
AcDbLine
 10
430.7801075000326
 20
132.068535754564
 30
0.0
 11
430.7801075000326
 21
132.168535754564
 31
0.0
  0
LINE
  5
181
330
1F
100
AcDbEntity
  8
Sichtbare_Kanten_TC_020513_DIN_
  6
Continuous
 62
     7
100
AcDbLine
 10
396.7134701974419
 20
160.099814437437
 30
0.0
 11
396.7134701974419
 21
160.883813307157
 31
0.0
  0
LINE
  5
182
330
1F
100
AcDbEntity
  8
Sichtbare_Kanten_TC_020513_DIN_
  6
Continuous
 62
     7
100
AcDbLine
 10
396.7134701974419
 20
159.483813307157
 30
0.0
 11
396.7134701974419
 21
160.099814437437
 31
0.0
  0
LINE
  5
183
330
1F
100
AcDbEntity
  8
Sichtbare_Kanten_TC_020513_DIN_
  6
Continuous
 62
     7
100
AcDbLine
 10
398.473321263087
 20
159.667176004566
 30
0.0
 11
399.4209715498563
 21
159.667176004566
 31
0.0
  0
LINE
  5
184
330
1F
100
AcDbEntity
  8
Sichtbare_Kanten_TC_020513_DIN_
  6
Continuous
 62
     7
100
AcDbLine
 10
398.1134701974419
 20
149.667176004566
 30
0.0
 11
398.1134701974419
 21
158.991386124336
 31
0.0
  0
LINE
  5
185
330
1F
100
AcDbEntity
  8
Sichtbare_Kanten_TC_020513_DIN_
  6
Continuous
 62
     7
100
AcDbLine
 10
400.9134701974419
 20
149.667176004566
 30
0.0
 11
398.1134701974419
 21
149.667176004566
 31
0.0
  0
LINE
  5
186
330
1F
100
AcDbEntity
  8
Sichtbare_Kanten_TC_020513_DIN_
  6
Continuous
 62
     7
100
AcDbLine
 10
591.617558952846
 20
92.3061906695712
 30
0.0
 11
539.617558952846
 21
92.3061906695712
 31
0.0
  0
LINE
  5
187
330
1F
100
AcDbEntity
  8
Sichtbare_Kanten_TC_020513_DIN_
  6
Continuous
 62
     7
100
AcDbLine
 10
553.287558952846
 20
96.3061906695712
 30
0.0
 11
539.617558952846
 21
96.3061906695712
 31
0.0
  0
LINE
  5
188
330
1F
100
AcDbEntity
  8
Sichtbare_Kanten_TC_020513_DIN_
  6
Continuous
 62
     7
100
AcDbLine
 10
591.617558952846
 20
96.3061906695712
 30
0.0
 11
577.947558952846
 21
96.3061906695712
 31
0.0
  0
LINE
  5
189
330
1F
100
AcDbEntity
  8
Sichtbare_Kanten_TC_020513_DIN_
  6
Continuous
 62
     7
100
AcDbLine
 10
539.617558952846
 20
92.3061906695712
 30
0.0
 11
539.617558952846
 21
96.3061906695712
 31
0.0
  0
LINE
  5
18A
330
1F
100
AcDbEntity
  8
Sichtbare_Kanten_TC_020513_DIN_
  6
Continuous
 62
     7
100
AcDbLine
 10
591.617558952846
 20
92.3061906695712
 30
0.0
 11
591.617558952846
 21
96.3061906695712
 31
0.0
  0
LINE
  5
18B
330
1F
100
AcDbEntity
  8
Sichtbare_Kanten_TC_020513_DIN_
  6
Continuous
 62
     7
100
AcDbLine
 10
587.867558952851
 20
96.3061906695712
 30
0.0
 11
587.867558952851
 21
130.089553366981
 31
0.0
  0
LINE
  5
18C
330
1F
100
AcDbEntity
  8
Sichtbare_Kanten_TC_020513_DIN_
  6
Continuous
 62
     7
100
AcDbLine
 10
587.867558952851
 20
131.48955336698
 30
0.0
 11
587.867558952851
 21
145.306190669571
 31
0.0
  0
LINE
  5
18D
330
1F
100
AcDbEntity
  8
Sichtbare_Kanten_TC_020513_DIN_
  6
Continuous
 62
     7
100
AcDbLine
 10
543.367558952851
 20
145.306190669571
 30
0.0
 11
549.36755895285
 21
145.306190669571
 31
0.0
  0
LINE
  5
18E
330
1F
100
AcDbEntity
  8
Sichtbare_Kanten_TC_020513_DIN_
  6
Continuous
 62
     7
100
AcDbLine
 10
543.367558952851
 20
96.3061906695712
 30
0.0
 11
543.367558952851
 21
130.089553366981
 31
0.0
  0
LINE
  5
18F
330
1F
100
AcDbEntity
  8
Sichtbare_Kanten_TC_020513_DIN_
  6
Continuous
 62
     7
100
AcDbLine
 10
543.367558952851
 20
131.48955336698
 30
0.0
 11
543.367558952851
 21
145.306190669571
 31
0.0
  0
LINE
  5
190
330
1F
100
AcDbEntity
  8
Sichtbare_Kanten_TC_020513_DIN_
  6
Continuous
 62
     7
100
AcDbLine
 10
581.86755895285
 20
145.306190669571
 30
0.0
 11
580.827135439853
 21
145.306190669571
 31
0.0
  0
LINE
  5
191
330
1F
100
AcDbEntity
  8
Sichtbare_Kanten_TC_020513_DIN_
  6
Continuous
 62
     7
100
AcDbLine
 10
550.407982465846
 20
145.306190669571
 30
0.0
 11
549.36755895285
 21
145.306190669571
 31
0.0
  0
LINE
  5
192
330
1F
100
AcDbEntity
  8
Sichtbare_Kanten_TC_020513_DIN_
  6
Continuous
 62
     7
100
AcDbLine
 10
581.86755895285
 20
145.306190669571
 30
0.0
 11
587.867558952851
 21
145.306190669571
 31
0.0
  0
LINE
  5
193
330
1F
100
AcDbEntity
  8
Sichtbare_Kanten_TC_020513_DIN_
  6
Continuous
 62
     7
100
AcDbLine
 10
577.947558952846
 20
108.886190669571
 30
0.0
 11
577.947558952846
 21
96.3061906695712
 31
0.0
  0
LINE
  5
194
330
1F
100
AcDbEntity
  8
Sichtbare_Kanten_TC_020513_DIN_
  6
Continuous
 62
     7
100
AcDbLine
 10
553.287558952846
 20
96.3061906695712
 30
0.0
 11
553.287558952846
 21
108.886190669571
 31
0.0
  0
LINE
  5
195
330
1F
100
AcDbEntity
  8
Sichtbare_Kanten_TC_020513_DIN_
  6
Continuous
 62
     7
100
AcDbLine
 10
543.567558952851
 20
149.306190669571
 30
0.0
 11
543.567558952851
 21
145.306190669571
 31
0.0
  0
LINE
  5
196
330
1F
100
AcDbEntity
  8
Sichtbare_Kanten_TC_020513_DIN_
  6
Continuous
 62
     7
100
AcDbLine
 10
549.36755895285
 20
149.306190669571
 30
0.0
 11
543.567558952851
 21
149.306190669571
 31
0.0
  0
LINE
  5
197
330
1F
100
AcDbEntity
  8
Sichtbare_Kanten_TC_020513_DIN_
  6
Continuous
 62
     7
100
AcDbLine
 10
549.36755895285
 20
149.306190669571
 30
0.0
 11
549.372753731427
 21
149.306190669571
 31
0.0
  0
LINE
  5
198
330
1F
100
AcDbEntity
  8
Sichtbare_Kanten_TC_020513_DIN_
  6
Continuous
 62
     7
100
AcDbLine
 10
581.862364174273
 20
149.306190669571
 30
0.0
 11
581.86755895285
 21
149.306190669571
 31
0.0
  0
LINE
  5
199
330
1F
100
AcDbEntity
  8
Sichtbare_Kanten_TC_020513_DIN_
  6
Continuous
 62
     7
100
AcDbLine
 10
587.667558952851
 20
149.306190669571
 30
0.0
 11
587.667558952851
 21
145.306190669571
 31
0.0
  0
LINE
  5
19A
330
1F
100
AcDbEntity
  8
Sichtbare_Kanten_TC_020513_DIN_
  6
Continuous
 62
     7
100
AcDbLine
 10
587.667558952851
 20
149.306190669571
 30
0.0
 11
581.86755895285
 21
149.306190669571
 31
0.0
  0
LINE
  5
19B
330
1F
100
AcDbEntity
  8
Sichtbare_Kanten_TC_020513_DIN_
  6
Continuous
 62
     7
100
AcDbLine
 10
587.9675589528559
 20
139.806190669571
 30
0.0
 11
587.9675589528559
 21
144.806190669571
 31
0.0
  0
LINE
  5
19C
330
1F
100
AcDbEntity
  8
Sichtbare_Kanten_TC_020513_DIN_
  6
Continuous
 62
     7
100
AcDbLine
 10
592.7175589528559
 20
138.306190669571
 30
0.0
 11
592.7175589528559
 21
146.306190669571
 31
0.0
  0
LINE
  5
19D
330
1F
100
AcDbEntity
  8
Sichtbare_Kanten_TC_020513_DIN_
  6
Continuous
 62
     7
100
AcDbLine
 10
594.117558952856
 20
138.306190669571
 30
0.0
 11
594.117558952856
 21
146.306190669571
 31
0.0
  0
LINE
  5
19E
330
1F
100
AcDbEntity
  8
Sichtbare_Kanten_TC_020513_DIN_
  6
Continuous
 62
     7
100
AcDbLine
 10
543.267558952856
 20
139.806190669571
 30
0.0
 11
543.267558952856
 21
144.806190669571
 31
0.0
  0
LINE
  5
19F
330
1F
100
AcDbEntity
  8
Sichtbare_Kanten_TC_020513_DIN_
  6
Continuous
 62
     7
100
AcDbLine
 10
538.517558952856
 20
138.306190669571
 30
0.0
 11
538.517558952856
 21
146.306190669571
 31
0.0
  0
LINE
  5
1A0
330
1F
100
AcDbEntity
  8
Sichtbare_Kanten_TC_020513_DIN_
  6
Continuous
 62
     7
100
AcDbLine
 10
537.117558952856
 20
138.306190669571
 30
0.0
 11
537.117558952856
 21
146.306190669571
 31
0.0
  0
LINE
  5
1A1
330
1F
100
AcDbEntity
  8
Sichtbare_Kanten_TC_020513_DIN_
  6
Continuous
 62
     7
100
AcDbLine
 10
587.867558952856
 20
143.806190669571
 30
0.0
 11
587.9675589528559
 21
143.806190669571
 31
0.0
  0
LINE
  5
1A2
330
1F
100
AcDbEntity
  8
Sichtbare_Kanten_TC_020513_DIN_
  6
Continuous
 62
     7
100
AcDbLine
 10
587.867558952856
 20
140.806190669571
 30
0.0
 11
587.9675589528559
 21
140.806190669571
 31
0.0
  0
LINE
  5
1A3
330
1F
100
AcDbEntity
  8
Sichtbare_Kanten_TC_020513_DIN_
  6
Continuous
 62
     7
100
AcDbLine
 10
592.117558952856
 20
144.806190669571
 30
0.0
 11
592.7175589528559
 21
144.806190669571
 31
0.0
  0
LINE
  5
1A4
330
1F
100
AcDbEntity
  8
Sichtbare_Kanten_TC_020513_DIN_
  6
Continuous
 62
     7
100
AcDbLine
 10
592.117558952856
 20
139.806190669571
 30
0.0
 11
592.7175589528559
 21
139.806190669571
 31
0.0
  0
LINE
  5
1A5
330
1F
100
AcDbEntity
  8
Sichtbare_Kanten_TC_020513_DIN_
  6
Continuous
 62
     7
100
AcDbLine
 10
587.9675589528559
 20
144.806190669571
 30
0.0
 11
588.017558952856
 21
144.806190669571
 31
0.0
  0
LINE
  5
1A6
330
1F
100
AcDbEntity
  8
Sichtbare_Kanten_TC_020513_DIN_
  6
Continuous
 62
     7
100
AcDbLine
 10
589.417558952856
 20
144.806190669571
 30
0.0
 11
590.7175589528559
 21
144.806190669571
 31
0.0
  0
LINE
  5
1A7
330
1F
100
AcDbEntity
  8
Sichtbare_Kanten_TC_020513_DIN_
  6
Continuous
 62
     7
100
AcDbLine
 10
587.9675589528559
 20
139.806190669571
 30
0.0
 11
588.017558952856
 21
139.806190669571
 31
0.0
  0
LINE
  5
1A8
330
1F
100
AcDbEntity
  8
Sichtbare_Kanten_TC_020513_DIN_
  6
Continuous
 62
     7
100
AcDbLine
 10
589.417558952856
 20
139.806190669571
 30
0.0
 11
590.7175589528559
 21
139.806190669571
 31
0.0
  0
LINE
  5
1A9
330
1F
100
AcDbEntity
  8
Sichtbare_Kanten_TC_020513_DIN_
  6
Continuous
 62
     7
100
AcDbLine
 10
543.267558952856
 20
143.806190669571
 30
0.0
 11
543.367558952856
 21
143.806190669571
 31
0.0
  0
LINE
  5
1AA
330
1F
100
AcDbEntity
  8
Sichtbare_Kanten_TC_020513_DIN_
  6
Continuous
 62
     7
100
AcDbLine
 10
543.267558952856
 20
140.806190669571
 30
0.0
 11
543.367558952856
 21
140.806190669571
 31
0.0
  0
LINE
  5
1AB
330
1F
100
AcDbEntity
  8
Sichtbare_Kanten_TC_020513_DIN_
  6
Continuous
 62
     7
100
AcDbLine
 10
538.517558952856
 20
144.806190669571
 30
0.0
 11
539.117558952856
 21
144.806190669571
 31
0.0
  0
LINE
  5
1AC
330
1F
100
AcDbEntity
  8
Sichtbare_Kanten_TC_020513_DIN_
  6
Continuous
 62
     7
100
AcDbLine
 10
538.517558952856
 20
139.806190669571
 30
0.0
 11
539.117558952856
 21
139.806190669571
 31
0.0
  0
LINE
  5
1AD
330
1F
100
AcDbEntity
  8
Sichtbare_Kanten_TC_020513_DIN_
  6
Continuous
 62
     7
100
AcDbLine
 10
540.517558952856
 20
144.806190669571
 30
0.0
 11
541.817558952856
 21
144.806190669571
 31
0.0
  0
LINE
  5
1AE
330
1F
100
AcDbEntity
  8
Sichtbare_Kanten_TC_020513_DIN_
  6
Continuous
 62
     7
100
AcDbLine
 10
543.2175589528559
 20
144.806190669571
 30
0.0
 11
543.267558952856
 21
144.806190669571
 31
0.0
  0
LINE
  5
1AF
330
1F
100
AcDbEntity
  8
Sichtbare_Kanten_TC_020513_DIN_
  6
Continuous
 62
     7
100
AcDbLine
 10
540.517558952856
 20
139.806190669571
 30
0.0
 11
541.817558952856
 21
139.806190669571
 31
0.0
  0
LINE
  5
1B0
330
1F
100
AcDbEntity
  8
Sichtbare_Kanten_TC_020513_DIN_
  6
Continuous
 62
     7
100
AcDbLine
 10
543.2175589528559
 20
139.806190669571
 30
0.0
 11
543.267558952856
 21
139.806190669571
 31
0.0
  0
LINE
  5
1B1
330
1F
100
AcDbEntity
  8
Sichtbare_Kanten_TC_020513_DIN_
  6
Continuous
 62
     7
100
AcDbLine
 10
551.834196255439
 20
130.089553366981
 30
0.0
 11
551.834196255439
 21
129.98955336698
 31
0.0
  0
LINE
  5
1B2
330
1F
100
AcDbEntity
  8
Sichtbare_Kanten_TC_020513_DIN_
  6
Continuous
 62
     7
100
AcDbLine
 10
555.834196255439
 20
129.98955336698
 30
0.0
 11
555.834196255439
 21
130.089553366981
 31
0.0
  0
LINE
  5
1B3
330
1F
100
AcDbEntity
  8
Sichtbare_Kanten_TC_020513_DIN_
  6
Continuous
 62
     7
100
AcDbLine
 10
575.400921650258
 20
130.089553366981
 30
0.0
 11
575.400921650258
 21
129.98955336698
 31
0.0
  0
LINE
  5
1B4
330
1F
100
AcDbEntity
  8
Sichtbare_Kanten_TC_020513_DIN_
  6
Continuous
 62
     7
100
AcDbLine
 10
579.400921650258
 20
129.98955336698
 30
0.0
 11
579.400921650258
 21
130.089553366981
 31
0.0
  0
LINE
  5
1B5
330
1F
100
AcDbEntity
  8
Sichtbare_Kanten_TC_020513_DIN_
  6
Continuous
 62
     7
100
AcDbLine
 10
540.517558952854
 20
130.464682236384
 30
0.0
 11
540.517558952857
 21
127.572250244965
 31
0.0
  0
LINE
  5
1B6
330
1F
100
AcDbEntity
  8
Sichtbare_Kanten_TC_020513_DIN_
  6
Continuous
 62
     7
100
AcDbLine
 10
540.517558952856
 20
149.306190669571
 30
0.0
 11
540.517558952855
 21
148.59816638315
 31
0.0
  0
LINE
  5
1B7
330
1F
100
AcDbEntity
  8
Sichtbare_Kanten_TC_020513_DIN_
  6
Continuous
 62
     7
100
AcDbLine
 10
540.517558952855
 20
148.59816638315
 30
0.0
 11
540.5175589528529
 21
143.484602919479
 31
0.0
  0
LINE
  5
1B8
330
1F
100
AcDbEntity
  8
Sichtbare_Kanten_TC_020513_DIN_
  6
Continuous
 62
     7
100
AcDbLine
 10
540.5175589528529
 20
143.306190669571
 30
0.0
 11
540.5175589528529
 21
143.484602919479
 31
0.0
  0
LINE
  5
1B9
330
1F
100
AcDbEntity
  8
Sichtbare_Kanten_TC_020513_DIN_
  6
Continuous
 62
     7
100
AcDbLine
 10
540.5175589528529
 20
143.306190669571
 30
0.0
 11
540.517558952847
 21
135.306190669571
 31
0.0
  0
LINE
  5
1BA
330
1F
100
AcDbEntity
  8
Sichtbare_Kanten_TC_020513_DIN_
  6
Continuous
 62
     7
100
AcDbLine
 10
540.517558952847
 20
132.88955336698
 30
0.0
 11
540.517558952847
 21
135.306190669571
 31
0.0
  0
LINE
  5
1BB
330
1F
100
AcDbEntity
  8
Sichtbare_Kanten_TC_020513_DIN_
  6
Continuous
 62
     7
100
AcDbLine
 10
539.1175589528469
 20
132.88955336698
 30
0.0
 11
539.1175589528469
 21
135.306190669571
 31
0.0
  0
LINE
  5
1BC
330
1F
100
AcDbEntity
  8
Sichtbare_Kanten_TC_020513_DIN_
  6
Continuous
 62
     7
100
AcDbLine
 10
539.117558952849
 20
143.306190669571
 30
0.0
 11
539.1175589528469
 21
135.306190669571
 31
0.0
  0
LINE
  5
1BD
330
1F
100
AcDbEntity
  8
Sichtbare_Kanten_TC_020513_DIN_
  6
Continuous
 62
     7
100
AcDbLine
 10
539.117558952849
 20
143.306190669571
 30
0.0
 11
539.117558952853
 21
143.484602919479
 31
0.0
  0
LINE
  5
1BE
330
1F
100
AcDbEntity
  8
Sichtbare_Kanten_TC_020513_DIN_
  6
Continuous
 62
     7
100
AcDbLine
 10
539.117558952855
 20
148.59816638315
 30
0.0
 11
539.117558952853
 21
143.484602919479
 31
0.0
  0
LINE
  5
1BF
330
1F
100
AcDbEntity
  8
Sichtbare_Kanten_TC_020513_DIN_
  6
Continuous
 62
     7
100
AcDbLine
 10
539.117558952856
 20
149.306190669571
 30
0.0
 11
539.117558952855
 21
148.59816638315
 31
0.0
  0
LINE
  5
1C0
330
1F
100
AcDbEntity
  8
Sichtbare_Kanten_TC_020513_DIN_
  6
Continuous
 62
     7
100
AcDbLine
 10
539.1175589528469
 20
132.88955336698
 30
0.0
 11
539.117558952856
 21
127.572250244965
 31
0.0
  0
LINE
  5
1C1
330
1F
100
AcDbEntity
  8
Sichtbare_Kanten_TC_020513_DIN_
  6
Continuous
 62
     7
100
AcDbLine
 10
539.117558952849
 20
143.306190669571
 30
0.0
 11
540.5175589528529
 21
143.306190669571
 31
0.0
  0
LINE
  5
1C2
330
1F
100
AcDbEntity
  8
Sichtbare_Kanten_TC_020513_DIN_
  6
Continuous
 62
     7
100
AcDbLine
 10
545.834196255437
 20
130.089553366981
 30
0.0
 11
541.917558952847
 21
130.08955336698
 31
0.0
  0
LINE
  5
1C3
330
1F
100
AcDbEntity
  8
Sichtbare_Kanten_TC_020513_DIN_
  6
Continuous
 62
     7
100
AcDbLine
 10
545.834196255437
 20
131.489553366981
 30
0.0
 11
541.917558952847
 21
131.48955336698
 31
0.0
  0
LINE
  5
1C4
330
1F
100
AcDbEntity
  8
Sichtbare_Kanten_TC_020513_DIN_
  6
Continuous
 62
     7
100
AcDbLine
 10
546.625741080369
 20
131.48955336698
 30
0.0
 11
545.834196255437
 21
131.489553366981
 31
0.0
  0
LINE
  5
1C5
330
1F
100
AcDbEntity
  8
Sichtbare_Kanten_TC_020513_DIN_
  6
Continuous
 62
     7
100
AcDbLine
 10
546.625741080369
 20
130.089553366981
 30
0.0
 11
545.834196255437
 21
130.089553366981
 31
0.0
  0
LINE
  5
1C6
330
1F
100
AcDbEntity
  8
Sichtbare_Kanten_TC_020513_DIN_
  6
Continuous
 62
     7
100
AcDbLine
 10
546.625741080369
 20
131.48955336698
 30
0.0
 11
552.9580996798239
 21
131.48955336698
 31
0.0
  0
LINE
  5
1C7
330
1F
100
AcDbEntity
  8
Sichtbare_Kanten_TC_020513_DIN_
  6
Continuous
 62
     7
100
AcDbLine
 10
546.625741080369
 20
130.089553366981
 30
0.0
 11
552.9580996798239
 21
130.08955336698
 31
0.0
  0
LINE
  5
1C8
330
1F
100
AcDbEntity
  8
Sichtbare_Kanten_TC_020513_DIN_
  6
Continuous
 62
     7
100
AcDbLine
 10
551.834196255439
 20
129.151898451973
 30
0.0
 11
555.334196255439
 21
129.151898451973
 31
0.0
  0
LINE
  5
1C9
330
1F
100
AcDbEntity
  8
Sichtbare_Kanten_TC_020513_DIN_
  6
Continuous
 62
     7
100
AcDbLine
 10
555.834196255439
 20
129.651898451973
 30
0.0
 11
555.834196255439
 21
129.98955336698
 31
0.0
  0
LINE
  5
1CA
330
1F
100
AcDbEntity
  8
Sichtbare_Kanten_TC_020513_DIN_
  6
Continuous
 62
     7
100
AcDbLine
 10
551.834196255439
 20
129.98955336698
 30
0.0
 11
551.834196255439
 21
129.151898451973
 31
0.0
  0
LINE
  5
1CB
330
1F
100
AcDbEntity
  8
Sichtbare_Kanten_TC_020513_DIN_
  6
Continuous
 62
     7
100
AcDbLine
 10
585.400921650256
 20
130.089553366981
 30
0.0
 11
589.317558952847
 21
130.089553366981
 31
0.0
  0
LINE
  5
1CC
330
1F
100
AcDbEntity
  8
Sichtbare_Kanten_TC_020513_DIN_
  6
Continuous
 62
     7
100
AcDbLine
 10
584.6093768253239
 20
130.089553366981
 30
0.0
 11
585.400921650256
 21
130.089553366981
 31
0.0
  0
LINE
  5
1CD
330
1F
100
AcDbEntity
  8
Sichtbare_Kanten_TC_020513_DIN_
  6
Continuous
 62
     7
100
AcDbLine
 10
584.6093768253239
 20
130.089553366981
 30
0.0
 11
578.277018225867
 21
130.08955336698
 31
0.0
  0
LINE
  5
1CE
330
1F
100
AcDbEntity
  8
Sichtbare_Kanten_TC_020513_DIN_
  6
Continuous
 62
     7
100
AcDbLine
 10
578.277018225867
 20
130.08955336698
 30
0.0
 11
552.9580996798239
 21
130.08955336698
 31
0.0
  0
LINE
  5
1CF
330
1F
100
AcDbEntity
  8
Sichtbare_Kanten_TC_020513_DIN_
  6
Continuous
 62
     7
100
AcDbLine
 10
579.400921650258
 20
129.151898451973
 30
0.0
 11
575.900921650258
 21
129.151898451973
 31
0.0
  0
LINE
  5
1D0
330
1F
100
AcDbEntity
  8
Sichtbare_Kanten_TC_020513_DIN_
  6
Continuous
 62
     7
100
AcDbLine
 10
575.400921650258
 20
129.651898451973
 30
0.0
 11
575.400921650258
 21
129.98955336698
 31
0.0
  0
LINE
  5
1D1
330
1F
100
AcDbEntity
  8
Sichtbare_Kanten_TC_020513_DIN_
  6
Continuous
 62
     7
100
AcDbLine
 10
579.400921650258
 20
129.98955336698
 30
0.0
 11
579.400921650258
 21
129.151898451973
 31
0.0
  0
LINE
  5
1D2
330
1F
100
AcDbEntity
  8
Sichtbare_Kanten_TC_020513_DIN_
  6
Continuous
 62
     7
100
AcDbLine
 10
578.277018225867
 20
131.489553366981
 30
0.0
 11
552.9580996798239
 21
131.48955336698
 31
0.0
  0
LINE
  5
1D3
330
1F
100
AcDbEntity
  8
Sichtbare_Kanten_TC_020513_DIN_
  6
Continuous
 62
     7
100
AcDbLine
 10
584.6093768253239
 20
131.48955336698
 30
0.0
 11
578.277018225867
 21
131.489553366981
 31
0.0
  0
LINE
  5
1D4
330
1F
100
AcDbEntity
  8
Sichtbare_Kanten_TC_020513_DIN_
  6
Continuous
 62
     7
100
AcDbLine
 10
584.6093768253239
 20
131.48955336698
 30
0.0
 11
585.400921650256
 21
131.48955336698
 31
0.0
  0
LINE
  5
1D5
330
1F
100
AcDbEntity
  8
Sichtbare_Kanten_TC_020513_DIN_
  6
Continuous
 62
     7
100
AcDbLine
 10
585.400921650256
 20
131.48955336698
 30
0.0
 11
589.317558952847
 21
131.48955336698
 31
0.0
  0
LINE
  5
1D6
330
1F
100
AcDbEntity
  8
Sichtbare_Kanten_TC_020513_DIN_
  6
Continuous
 62
     7
100
AcDbLine
 10
590.717558952847
 20
132.88955336698
 30
0.0
 11
590.717558952847
 21
135.306190669571
 31
0.0
  0
LINE
  5
1D7
330
1F
100
AcDbEntity
  8
Sichtbare_Kanten_TC_020513_DIN_
  6
Continuous
 62
     7
100
AcDbLine
 10
590.717558952849
 20
143.306190669571
 30
0.0
 11
590.717558952847
 21
135.306190669571
 31
0.0
  0
LINE
  5
1D8
330
1F
100
AcDbEntity
  8
Sichtbare_Kanten_TC_020513_DIN_
  6
Continuous
 62
     7
100
AcDbLine
 10
590.717558952849
 20
143.306190669571
 30
0.0
 11
590.717558952853
 21
143.484602919479
 31
0.0
  0
LINE
  5
1D9
330
1F
100
AcDbEntity
  8
Sichtbare_Kanten_TC_020513_DIN_
  6
Continuous
 62
     7
100
AcDbLine
 10
590.717558952855
 20
148.59816638315
 30
0.0
 11
590.717558952853
 21
143.484602919479
 31
0.0
  0
LINE
  5
1DA
330
1F
100
AcDbEntity
  8
Sichtbare_Kanten_TC_020513_DIN_
  6
Continuous
 62
     7
100
AcDbLine
 10
590.7175589528559
 20
149.306190669571
 30
0.0
 11
590.717558952855
 21
148.59816638315
 31
0.0
  0
LINE
  5
1DB
330
1F
100
AcDbEntity
  8
Sichtbare_Kanten_TC_020513_DIN_
  6
Continuous
 62
     7
100
AcDbLine
 10
590.717558952854
 20
130.464682236384
 30
0.0
 11
590.7175589528559
 21
127.572250244965
 31
0.0
  0
LINE
  5
1DC
330
1F
100
AcDbEntity
  8
Sichtbare_Kanten_TC_020513_DIN_
  6
Continuous
 62
     7
100
AcDbLine
 10
592.117558952853
 20
132.88955336698
 30
0.0
 11
592.1175589528569
 21
127.572250244965
 31
0.0
  0
LINE
  5
1DD
330
1F
100
AcDbEntity
  8
Sichtbare_Kanten_TC_020513_DIN_
  6
Continuous
 62
     7
100
AcDbLine
 10
592.117558952856
 20
149.306190669571
 30
0.0
 11
592.117558952855
 21
148.59816638315
 31
0.0
  0
LINE
  5
1DE
330
1F
100
AcDbEntity
  8
Sichtbare_Kanten_TC_020513_DIN_
  6
Continuous
 62
     7
100
AcDbLine
 10
592.117558952855
 20
148.59816638315
 30
0.0
 11
592.117558952853
 21
143.484602919479
 31
0.0
  0
LINE
  5
1DF
330
1F
100
AcDbEntity
  8
Sichtbare_Kanten_TC_020513_DIN_
  6
Continuous
 62
     7
100
AcDbLine
 10
592.117558952853
 20
143.306190669571
 30
0.0
 11
592.117558952853
 21
143.484602919479
 31
0.0
  0
LINE
  5
1E0
330
1F
100
AcDbEntity
  8
Sichtbare_Kanten_TC_020513_DIN_
  6
Continuous
 62
     7
100
AcDbLine
 10
592.117558952853
 20
143.306190669571
 30
0.0
 11
592.1175589528469
 21
135.306190669571
 31
0.0
  0
LINE
  5
1E1
330
1F
100
AcDbEntity
  8
Sichtbare_Kanten_TC_020513_DIN_
  6
Continuous
 62
     7
100
AcDbLine
 10
592.117558952853
 20
132.88955336698
 30
0.0
 11
592.1175589528469
 21
135.306190669571
 31
0.0
  0
LINE
  5
1E2
330
1F
100
AcDbEntity
  8
Sichtbare_Kanten_TC_020513_DIN_
  6
Continuous
 62
     7
100
AcDbLine
 10
592.117558952853
 20
143.306190669571
 30
0.0
 11
590.717558952849
 21
143.306190669571
 31
0.0
  0
LINE
  5
1E3
330
1F
100
AcDbEntity
  8
Sichtbare_Kanten_TC_020513_DIN_
  6
Continuous
 62
     7
100
AcDbLine
 10
588.017558952856
 20
132.168535754564
 30
0.0
 11
588.017558952856
 21
132.306190669571
 31
0.0
  0
LINE
  5
1E4
330
1F
100
AcDbEntity
  8
Sichtbare_Kanten_TC_020513_DIN_
  6
Continuous
 62
     7
100
AcDbLine
 10
588.0175589528529
 20
140.521788984842
 30
0.0
 11
588.017558952856
 21
132.306190669571
 31
0.0
  0
LINE
  5
1E5
330
1F
100
AcDbEntity
  8
Sichtbare_Kanten_TC_020513_DIN_
  6
Continuous
 62
     7
100
AcDbLine
 10
588.0175589528529
 20
140.521788984842
 30
0.0
 11
588.0175589528529
 21
145.349768540945
 31
0.0
  0
LINE
  5
1E6
330
1F
100
AcDbEntity
  8
Sichtbare_Kanten_TC_020513_DIN_
  6
Continuous
 62
     7
100
AcDbLine
 10
588.0175589528529
 20
145.349768540945
 30
0.0
 11
588.0175589528529
 21
145.698340432664
 31
0.0
  0
LINE
  5
1E7
330
1F
100
AcDbEntity
  8
Sichtbare_Kanten_TC_020513_DIN_
  6
Continuous
 62
     7
100
AcDbLine
 10
588.0175589528529
 20
145.698340432664
 30
0.0
 11
588.017558952852
 21
149.667176004566
 31
0.0
  0
LINE
  5
1E8
330
1F
100
AcDbEntity
  8
Sichtbare_Kanten_TC_020513_DIN_
  6
Continuous
 62
     7
100
AcDbLine
 10
588.0175589528479
 20
160.102432253763
 30
0.0
 11
588.017558952849
 21
162.149651938361
 31
0.0
  0
LINE
  5
1E9
330
1F
100
AcDbEntity
  8
Sichtbare_Kanten_TC_020513_DIN_
  6
Continuous
 62
     7
100
AcDbLine
 10
588.017558952855
 20
167.306190669571
 30
0.0
 11
588.017558952849
 21
162.149651938361
 31
0.0
  0
LINE
  5
1EA
330
1F
100
AcDbEntity
  8
Sichtbare_Kanten_TC_020513_DIN_
  6
Continuous
 62
     7
100
AcDbLine
 10
589.4175589528489
 20
162.149651938361
 30
0.0
 11
589.417558952848
 21
160.102432253763
 31
0.0
  0
LINE
  5
1EB
330
1F
100
AcDbEntity
  8
Sichtbare_Kanten_TC_020513_DIN_
  6
Continuous
 62
     7
100
AcDbLine
 10
589.4175589528489
 20
162.149651938361
 30
0.0
 11
589.417558952855
 21
167.306190669571
 31
0.0
  0
LINE
  5
1EC
330
1F
100
AcDbEntity
  8
Sichtbare_Kanten_TC_020513_DIN_
  6
Continuous
 62
     7
100
AcDbLine
 10
589.417558952852
 20
149.667176004566
 30
0.0
 11
589.417558952853
 21
145.698340432664
 31
0.0
  0
LINE
  5
1ED
330
1F
100
AcDbEntity
  8
Sichtbare_Kanten_TC_020513_DIN_
  6
Continuous
 62
     7
100
AcDbLine
 10
589.417558952853
 20
145.698340432664
 30
0.0
 11
589.417558952853
 21
145.349768540945
 31
0.0
  0
LINE
  5
1EE
330
1F
100
AcDbEntity
  8
Sichtbare_Kanten_TC_020513_DIN_
  6
Continuous
 62
     7
100
AcDbLine
 10
589.417558952853
 20
145.349768540945
 30
0.0
 11
589.417558952853
 21
140.521788984842
 31
0.0
  0
LINE
  5
1EF
330
1F
100
AcDbEntity
  8
Sichtbare_Kanten_TC_020513_DIN_
  6
Continuous
 62
     7
100
AcDbLine
 10
589.417558952856
 20
132.306190669571
 30
0.0
 11
589.417558952853
 21
140.521788984842
 31
0.0
  0
LINE
  5
1F0
330
1F
100
AcDbEntity
  8
Sichtbare_Kanten_TC_020513_DIN_
  6
Continuous
 62
     7
100
AcDbLine
 10
589.417558952856
 20
132.306190669571
 30
0.0
 11
589.417558952856
 21
132.168535754564
 31
0.0
  0
LINE
  5
1F1
330
1F
100
AcDbEntity
  8
Sichtbare_Kanten_TC_020513_DIN_
  6
Continuous
 62
     7
100
AcDbLine
 10
589.417558952856
 20
132.306190669571
 30
0.0
 11
588.017558952856
 21
132.306190669571
 31
0.0
  0
LINE
  5
1F2
330
1F
100
AcDbEntity
  8
Sichtbare_Kanten_TC_020513_DIN_
  6
Continuous
 62
     7
100
AcDbLine
 10
589.417558952855
 20
167.306190669571
 30
0.0
 11
588.017558952855
 21
167.306190669571
 31
0.0
  0
LINE
  5
1F3
330
1F
100
AcDbEntity
  8
Sichtbare_Kanten_TC_020513_DIN_
  6
Continuous
 62
     7
100
AcDbLine
 10
585.0401070715919
 20
157.667176004566
 30
0.0
 11
582.1509216502569
 21
157.667176004566
 31
0.0
  0
LINE
  5
1F4
330
1F
100
AcDbEntity
  8
Sichtbare_Kanten_TC_020513_DIN_
  6
Continuous
 62
     7
100
AcDbLine
 10
581.541041728427
 20
148.106998976069
 30
0.0
 11
581.909440193684
 21
149.481880765842
 31
0.0
  0
LINE
  5
1F5
330
1F
100
AcDbEntity
  8
Sichtbare_Kanten_TC_020513_DIN_
  6
Continuous
 62
     7
100
AcDbLine
 10
582.1509216502569
 20
149.667176004566
 30
0.0
 11
586.6175589528469
 21
149.667176004566
 31
0.0
  0
LINE
  5
1F6
330
1F
100
AcDbEntity
  8
Sichtbare_Kanten_TC_020513_DIN_
  6
Continuous
 62
     7
100
AcDbLine
 10
586.6175589528469
 20
158.991386124336
 30
0.0
 11
585.806151514711
 21
158.02438839488
 31
0.0
  0
LINE
  5
1F7
330
1F
100
AcDbEntity
  8
Sichtbare_Kanten_TC_020513_DIN_
  6
Continuous
 62
     7
100
AcDbLine
 10
578.717636920595
 20
160.883813307157
 30
0.0
 11
576.785785268017
 21
160.883813307157
 31
0.0
  0
LINE
  5
1F8
330
1F
100
AcDbEntity
  8
Sichtbare_Kanten_TC_020513_DIN_
  6
Continuous
 62
     7
100
AcDbLine
 10
576.785785268017
 20
159.483813307157
 30
0.0
 11
578.717636920595
 21
159.483813307157
 31
0.0
  0
LINE
  5
1F9
330
1F
100
AcDbEntity
  8
Sichtbare_Kanten_TC_020513_DIN_
  6
Continuous
 62
     7
100
AcDbLine
 10
578.717636920595
 20
160.883813307157
 30
0.0
 11
580.0397720273289
 21
160.883813307157
 31
0.0
  0
LINE
  5
1FA
330
1F
100
AcDbEntity
  8
Sichtbare_Kanten_TC_020513_DIN_
  6
Continuous
 62
     7
100
AcDbLine
 10
580.0397720273289
 20
159.483813307157
 30
0.0
 11
578.717636920595
 21
159.483813307157
 31
0.0
  0
LINE
  5
1FB
330
1F
100
AcDbEntity
  8
Sichtbare_Kanten_TC_020513_DIN_
  6
Continuous
 62
     7
100
AcDbLine
 10
589.517558952856
 20
132.068535754564
 30
0.0
 11
590.451547524272
 21
132.068535754564
 31
0.0
  0
LINE
  5
1FC
330
1F
100
AcDbEntity
  8
Sichtbare_Kanten_TC_020513_DIN_
  6
Continuous
 62
     7
100
AcDbLine
 10
592.117558952856
 20
130.668535754564
 30
0.0
 11
592.455213867864
 21
130.668535754564
 31
0.0
  0
LINE
  5
1FD
330
1F
100
AcDbEntity
  8
Sichtbare_Kanten_TC_020513_DIN_
  6
Continuous
 62
     7
100
AcDbLine
 10
592.455213867864
 20
132.068535754564
 30
0.0
 11
592.455213867864
 21
130.668535754564
 31
0.0
  0
LINE
  5
1FE
330
1F
100
AcDbEntity
  8
Sichtbare_Kanten_TC_020513_DIN_
  6
Continuous
 62
     7
100
AcDbLine
 10
592.455213867864
 20
132.068535754564
 30
0.0
 11
592.117558952856
 21
132.068535754564
 31
0.0
  0
LINE
  5
1FF
330
1F
100
AcDbEntity
  8
Sichtbare_Kanten_TC_020513_DIN_
  6
Continuous
 62
     7
100
AcDbLine
 10
579.67679565557
 20
142.006962239383
 30
0.0
 11
581.3053413083729
 21
147.515333409632
 31
0.0
  0
LINE
  5
200
330
1F
100
AcDbEntity
  8
Sichtbare_Kanten_TC_020513_DIN_
  6
Continuous
 62
     7
100
AcDbLine
 10
581.3053413083729
 20
146.923667843195
 30
0.0
 11
579.676795655571
 21
141.415296672946
 31
0.0
  0
LINE
  5
201
330
1F
100
AcDbEntity
  8
Sichtbare_Kanten_TC_020513_DIN_
  6
Continuous
 62
     7
100
AcDbLine
 10
576.785785268017
 20
160.883813307157
 30
0.0
 11
554.449332637673
 21
160.883813307157
 31
0.0
  0
LINE
  5
202
330
1F
100
AcDbEntity
  8
Sichtbare_Kanten_TC_020513_DIN_
  6
Continuous
 62
     7
100
AcDbLine
 10
554.449332637673
 20
159.483813307157
 30
0.0
 11
576.785785268017
 21
159.483813307157
 31
0.0
  0
LINE
  5
203
330
1F
100
AcDbEntity
  8
Sichtbare_Kanten_TC_020513_DIN_
  6
Continuous
 62
     7
100
AcDbLine
 10
552.517480985096
 20
160.883813307157
 30
0.0
 11
551.195345878365
 21
160.883813307157
 31
0.0
  0
LINE
  5
204
330
1F
100
AcDbEntity
  8
Sichtbare_Kanten_TC_020513_DIN_
  6
Continuous
 62
     7
100
AcDbLine
 10
552.517480985096
 20
160.883813307157
 30
0.0
 11
554.449332637673
 21
160.883813307157
 31
0.0
  0
LINE
  5
205
330
1F
100
AcDbEntity
  8
Sichtbare_Kanten_TC_020513_DIN_
  6
Continuous
 62
     7
100
AcDbLine
 10
577.7449440029919
 20
140.071820530892
 30
0.0
 11
553.4901739027019
 21
140.071820530892
 31
0.0
  0
LINE
  5
206
330
1F
100
AcDbEntity
  8
Sichtbare_Kanten_TC_020513_DIN_
  6
Continuous
 62
     7
100
AcDbLine
 10
549.929776597322
 20
146.923667843195
 30
0.0
 11
551.558322250124
 21
141.415296672946
 31
0.0
  0
LINE
  5
207
330
1F
100
AcDbEntity
  8
Sichtbare_Kanten_TC_020513_DIN_
  6
Continuous
 62
     7
100
AcDbLine
 10
549.694076177269
 20
148.106998976069
 30
0.0
 11
549.325677712011
 21
149.481880765842
 31
0.0
  0
LINE
  5
208
330
1F
100
AcDbEntity
  8
Sichtbare_Kanten_TC_020513_DIN_
  6
Continuous
 62
     7
100
AcDbLine
 10
546.195010834103
 20
157.667176004566
 30
0.0
 11
549.084196255438
 21
157.667176004566
 31
0.0
  0
LINE
  5
209
330
1F
100
AcDbEntity
  8
Sichtbare_Kanten_TC_020513_DIN_
  6
Continuous
 62
     7
100
AcDbLine
 10
544.6175589528469
 20
158.991386124336
 30
0.0
 11
545.428966390984
 21
158.02438839488
 31
0.0
  0
LINE
  5
20A
330
1F
100
AcDbEntity
  8
Sichtbare_Kanten_TC_020513_DIN_
  6
Continuous
 62
     7
100
AcDbLine
 10
549.084196255438
 20
149.667176004566
 30
0.0
 11
544.6175589528469
 21
149.667176004566
 31
0.0
  0
LINE
  5
20B
330
1F
100
AcDbEntity
  8
Sichtbare_Kanten_TC_020513_DIN_
  6
Continuous
 62
     7
100
AcDbLine
 10
543.217558952855
 20
167.306190669571
 30
0.0
 11
543.217558952849
 21
162.149651938361
 31
0.0
  0
LINE
  5
20C
330
1F
100
AcDbEntity
  8
Sichtbare_Kanten_TC_020513_DIN_
  6
Continuous
 62
     7
100
AcDbLine
 10
543.217558952848
 20
160.102432253763
 30
0.0
 11
543.217558952849
 21
162.149651938361
 31
0.0
  0
LINE
  5
20D
330
1F
100
AcDbEntity
  8
Sichtbare_Kanten_TC_020513_DIN_
  6
Continuous
 62
     7
100
AcDbLine
 10
543.217558952853
 20
145.698340432664
 30
0.0
 11
543.2175589528509
 21
149.667176004566
 31
0.0
  0
LINE
  5
20E
330
1F
100
AcDbEntity
  8
Sichtbare_Kanten_TC_020513_DIN_
  6
Continuous
 62
     7
100
AcDbLine
 10
543.217558952853
 20
145.349768540945
 30
0.0
 11
543.217558952853
 21
145.698340432664
 31
0.0
  0
LINE
  5
20F
330
1F
100
AcDbEntity
  8
Sichtbare_Kanten_TC_020513_DIN_
  6
Continuous
 62
     7
100
AcDbLine
 10
543.217558952853
 20
140.521788984842
 30
0.0
 11
543.217558952853
 21
145.349768540945
 31
0.0
  0
LINE
  5
210
330
1F
100
AcDbEntity
  8
Sichtbare_Kanten_TC_020513_DIN_
  6
Continuous
 62
     7
100
AcDbLine
 10
543.217558952853
 20
140.521788984842
 30
0.0
 11
543.2175589528559
 21
132.306190669571
 31
0.0
  0
LINE
  5
211
330
1F
100
AcDbEntity
  8
Sichtbare_Kanten_TC_020513_DIN_
  6
Continuous
 62
     7
100
AcDbLine
 10
543.2175589528559
 20
132.168535754564
 30
0.0
 11
543.2175589528559
 21
132.306190669571
 31
0.0
  0
LINE
  5
212
330
1F
100
AcDbEntity
  8
Sichtbare_Kanten_TC_020513_DIN_
  6
Continuous
 62
     7
100
AcDbLine
 10
541.817558952856
 20
132.306190669571
 30
0.0
 11
541.817558952856
 21
132.168535754564
 31
0.0
  0
LINE
  5
213
330
1F
100
AcDbEntity
  8
Sichtbare_Kanten_TC_020513_DIN_
  6
Continuous
 62
     7
100
AcDbLine
 10
541.817558952856
 20
132.306190669571
 30
0.0
 11
541.817558952853
 21
140.521788984842
 31
0.0
  0
LINE
  5
214
330
1F
100
AcDbEntity
  8
Sichtbare_Kanten_TC_020513_DIN_
  6
Continuous
 62
     7
100
AcDbLine
 10
541.817558952853
 20
145.349768540945
 30
0.0
 11
541.817558952853
 21
140.521788984842
 31
0.0
  0
LINE
  5
215
330
1F
100
AcDbEntity
  8
Sichtbare_Kanten_TC_020513_DIN_
  6
Continuous
 62
     7
100
AcDbLine
 10
541.817558952853
 20
145.698340432664
 30
0.0
 11
541.817558952853
 21
145.349768540945
 31
0.0
  0
LINE
  5
216
330
1F
100
AcDbEntity
  8
Sichtbare_Kanten_TC_020513_DIN_
  6
Continuous
 62
     7
100
AcDbLine
 10
541.817558952852
 20
149.667176004566
 30
0.0
 11
541.817558952853
 21
145.698340432664
 31
0.0
  0
LINE
  5
217
330
1F
100
AcDbEntity
  8
Sichtbare_Kanten_TC_020513_DIN_
  6
Continuous
 62
     7
100
AcDbLine
 10
541.817558952849
 20
162.149651938361
 30
0.0
 11
541.817558952848
 21
160.102432253763
 31
0.0
  0
LINE
  5
218
330
1F
100
AcDbEntity
  8
Sichtbare_Kanten_TC_020513_DIN_
  6
Continuous
 62
     7
100
AcDbLine
 10
541.817558952849
 20
162.149651938361
 30
0.0
 11
541.8175589528549
 21
167.306190669571
 31
0.0
  0
LINE
  5
219
330
1F
100
AcDbEntity
  8
Sichtbare_Kanten_TC_020513_DIN_
  6
Continuous
 62
     7
100
AcDbLine
 10
554.449332637673
 20
159.483813307157
 30
0.0
 11
552.517480985096
 21
159.483813307157
 31
0.0
  0
LINE
  5
21A
330
1F
100
AcDbEntity
  8
Sichtbare_Kanten_TC_020513_DIN_
  6
Continuous
 62
     7
100
AcDbLine
 10
551.195345878365
 20
159.483813307157
 30
0.0
 11
552.517480985096
 21
159.483813307157
 31
0.0
  0
LINE
  5
21B
330
1F
100
AcDbEntity
  8
Sichtbare_Kanten_TC_020513_DIN_
  6
Continuous
 62
     7
100
AcDbLine
 10
541.817558952856
 20
132.306190669571
 30
0.0
 11
543.2175589528559
 21
132.306190669571
 31
0.0
  0
LINE
  5
21C
330
1F
100
AcDbEntity
  8
Sichtbare_Kanten_TC_020513_DIN_
  6
Continuous
 62
     7
100
AcDbLine
 10
541.8175589528549
 20
167.306190669571
 30
0.0
 11
543.217558952855
 21
167.306190669571
 31
0.0
  0
LINE
  5
21D
330
1F
100
AcDbEntity
  8
Sichtbare_Kanten_TC_020513_DIN_
  6
Continuous
 62
     7
100
AcDbLine
 10
539.117558952856
 20
130.668535754564
 30
0.0
 11
538.779904037849
 21
130.668535754564
 31
0.0
  0
LINE
  5
21E
330
1F
100
AcDbEntity
  8
Sichtbare_Kanten_TC_020513_DIN_
  6
Continuous
 62
     7
100
AcDbLine
 10
538.779904037849
 20
132.068535754564
 30
0.0
 11
539.117558952856
 21
132.068535754564
 31
0.0
  0
LINE
  5
21F
330
1F
100
AcDbEntity
  8
Sichtbare_Kanten_TC_020513_DIN_
  6
Continuous
 62
     7
100
AcDbLine
 10
538.779904037849
 20
132.068535754564
 30
0.0
 11
538.779904037849
 21
130.668535754564
 31
0.0
  0
LINE
  5
220
330
1F
100
AcDbEntity
  8
Sichtbare_Kanten_TC_020513_DIN_
  6
Continuous
 62
     7
100
AcDbLine
 10
541.7175589528559
 20
132.068535754564
 30
0.0
 11
540.783570381441
 21
132.068535754564
 31
0.0
  0
LINE
  5
221
330
1F
100
AcDbEntity
  8
Sichtbare_Kanten_TC_020513_DIN_
  6
Continuous
 62
     7
100
AcDbLine
 10
551.558322250123
 20
142.006962239383
 30
0.0
 11
549.929776597322
 21
147.515333409632
 31
0.0
  0
LINE
  5
222
330
1F
100
AcDbEntity
  8
Sichtbare_Kanten_TC_020513_DIN_
  6
Continuous
 62
     7
100
AcDbLine
 10
553.490173902701
 20
140.663486097329
 30
0.0
 11
577.7449440029919
 21
140.663486097329
 31
0.0
  0
LINE
  5
223
330
1F
100
AcDbEntity
  8
Sichtbare_Kanten_TC_020513_DIN_
  6
Continuous
 62
     7
100
AcDbLine
 10
539.117558952856
 20
127.572250244965
 30
0.0
 11
540.517558952857
 21
127.572250244965
 31
0.0
  0
LINE
  5
224
330
1F
100
AcDbEntity
  8
Sichtbare_Kanten_TC_020513_DIN_
  6
Continuous
 62
     7
100
AcDbLine
 10
539.117558952856
 20
149.306190669571
 30
0.0
 11
540.517558952856
 21
149.306190669571
 31
0.0
  0
LINE
  5
225
330
1F
100
AcDbEntity
  8
Sichtbare_Kanten_TC_020513_DIN_
  6
Continuous
 62
     7
100
AcDbLine
 10
590.7175589528559
 20
127.572250244965
 30
0.0
 11
592.1175589528569
 21
127.572250244965
 31
0.0
  0
LINE
  5
226
330
1F
100
AcDbEntity
  8
Sichtbare_Kanten_TC_020513_DIN_
  6
Continuous
 62
     7
100
AcDbLine
 10
590.7175589528559
 20
149.306190669571
 30
0.0
 11
592.117558952856
 21
149.306190669571
 31
0.0
  0
LINE
  5
227
330
1F
100
AcDbEntity
  8
Sichtbare_Kanten_TC_020513_DIN_
  6
Continuous
 62
     7
100
AcDbLine
 10
581.3053413083729
 20
147.254998932079
 30
0.0
 11
581.3053413083729
 21
147.515333409632
 31
0.0
  0
LINE
  5
228
330
1F
100
AcDbEntity
  8
Sichtbare_Kanten_TC_020513_DIN_
  6
Continuous
 62
     7
100
AcDbLine
 10
581.3053413083729
 20
146.923667843195
 30
0.0
 11
581.3053413083729
 21
147.254998932079
 31
0.0
  0
LINE
  5
229
330
1F
100
AcDbEntity
  8
Sichtbare_Kanten_TC_020513_DIN_
  6
Continuous
 62
     7
100
AcDbLine
 10
587.304158207456
 20
159.667175948655
 30
0.0
 11
587.990756031552
 21
159.667175948655
 31
0.0
  0
LINE
  5
22A
330
1F
100
AcDbEntity
  8
Sichtbare_Kanten_TC_020513_DIN_
  6
Continuous
 62
     7
100
AcDbLine
 10
588.633560865626
 20
160.102432253763
 30
0.0
 11
589.417558952848
 21
160.102432253763
 31
0.0
  0
LINE
  5
22B
330
1F
100
AcDbEntity
  8
Sichtbare_Kanten_TC_020513_DIN_
  6
Continuous
 62
     7
100
AcDbLine
 10
588.0175589528479
 20
160.102432253763
 30
0.0
 11
588.633560865626
 21
160.102432253763
 31
0.0
  0
LINE
  5
22C
330
1F
100
AcDbEntity
  8
Sichtbare_Kanten_TC_020513_DIN_
  6
Continuous
 62
     7
100
AcDbLine
 10
587.990757109767
 20
159.667176004566
 30
0.0
 11
588.986619481191
 21
159.667176004566
 31
0.0
  0
LINE
  5
22D
330
1F
100
AcDbEntity
  8
Sichtbare_Kanten_TC_020513_DIN_
  6
Continuous
 62
     7
100
AcDbLine
 10
589.417558952852
 20
149.667176004566
 30
0.0
 11
586.6175589528469
 21
149.667176004566
 31
0.0
  0
LINE
  5
22E
330
1F
100
AcDbEntity
  8
Sichtbare_Kanten_TC_020513_DIN_
  6
Continuous
 62
     7
100
AcDbLine
 10
589.417558952848
 20
160.102432253763
 30
0.0
 11
589.417558952852
 21
149.667176004566
 31
0.0
  0
LINE
  5
22F
330
1F
100
AcDbEntity
  8
Sichtbare_Kanten_TC_020513_DIN_
  6
Continuous
 62
     7
100
AcDbLine
 10
580.0397720273289
 20
160.099814437437
 30
0.0
 11
580.0397720273289
 21
160.883813307157
 31
0.0
  0
LINE
  5
230
330
1F
100
AcDbEntity
  8
Sichtbare_Kanten_TC_020513_DIN_
  6
Continuous
 62
     7
100
AcDbLine
 10
580.0397720273289
 20
159.483813307157
 30
0.0
 11
580.0397720273289
 21
160.099814437437
 31
0.0
  0
LINE
  5
231
330
1F
100
AcDbEntity
  8
Sichtbare_Kanten_TC_020513_DIN_
  6
Continuous
 62
     7
100
AcDbLine
 10
551.195345878365
 20
160.099814437438
 30
0.0
 11
551.195345878365
 21
159.483813307157
 31
0.0
  0
LINE
  5
232
330
1F
100
AcDbEntity
  8
Sichtbare_Kanten_TC_020513_DIN_
  6
Continuous
 62
     7
100
AcDbLine
 10
551.195345878365
 20
160.883813307157
 30
0.0
 11
551.195345878365
 21
160.099814437438
 31
0.0
  0
LINE
  5
233
330
1F
100
AcDbEntity
  8
Sichtbare_Kanten_TC_020513_DIN_
  6
Continuous
 62
     7
100
AcDbLine
 10
549.929776597322
 20
147.254998932078
 30
0.0
 11
549.929776597322
 21
146.923667843195
 31
0.0
  0
LINE
  5
234
330
1F
100
AcDbEntity
  8
Sichtbare_Kanten_TC_020513_DIN_
  6
Continuous
 62
     7
100
AcDbLine
 10
549.929776597322
 20
147.515333409632
 30
0.0
 11
549.929776597322
 21
147.254998932078
 31
0.0
  0
LINE
  5
235
330
1F
100
AcDbEntity
  8
Sichtbare_Kanten_TC_020513_DIN_
  6
Continuous
 62
     7
100
AcDbLine
 10
541.817558952852
 20
149.667176004566
 30
0.0
 11
541.817558952848
 21
160.102432253763
 31
0.0
  0
LINE
  5
236
330
1F
100
AcDbEntity
  8
Sichtbare_Kanten_TC_020513_DIN_
  6
Continuous
 62
     7
100
AcDbLine
 10
542.601557040071
 20
160.102432253763
 30
0.0
 11
543.217558952848
 21
160.102432253763
 31
0.0
  0
LINE
  5
237
330
1F
100
AcDbEntity
  8
Sichtbare_Kanten_TC_020513_DIN_
  6
Continuous
 62
     7
100
AcDbLine
 10
541.817558952848
 20
160.102432253763
 30
0.0
 11
542.601557040071
 21
160.102432253763
 31
0.0
  0
LINE
  5
238
330
1F
100
AcDbEntity
  8
Sichtbare_Kanten_TC_020513_DIN_
  6
Continuous
 62
     7
100
AcDbLine
 10
543.93095969824
 20
159.667175948655
 30
0.0
 11
543.244361874143
 21
159.667175948655
 31
0.0
  0
LINE
  5
239
330
1F
100
AcDbEntity
  8
Sichtbare_Kanten_TC_020513_DIN_
  6
Continuous
 62
     7
100
AcDbLine
 10
542.248498424504
 20
159.667176004566
 30
0.0
 11
543.244360795928
 21
159.667176004566
 31
0.0
  0
LINE
  5
23A
330
1F
100
AcDbEntity
  8
Sichtbare_Kanten_TC_020513_DIN_
  6
Continuous
 62
     7
100
AcDbLine
 10
544.6175589528469
 20
149.667176004566
 30
0.0
 11
541.817558952852
 21
149.667176004566
 31
0.0
  0
LINE
  5
23B
330
1F
100
AcDbEntity
  8
Mittelpunktmarkierung_TC_020513_DIN_
  6
CHAIN
 62
     7
100
AcDbLine
 10
433.4801075000326
 20
142.306190669571
 30
0.0
 11
419.0801075000326
 21
142.306190669571
 31
0.0
  0
LINE
  5
23C
330
1F
100
AcDbEntity
  8
Mittelpunktmarkierung_TC_020513_DIN_
  6
CHAIN
 62
     7
100
AcDbLine
 10
426.2801075000326
 20
149.506190669571
 30
0.0
 11
426.2801075000326
 21
135.106190669571
 31
0.0
  0
LINE
  5
23D
330
1F
100
AcDbEntity
  8
Mittelpunktmarkierung_TC_020513_DIN_
  6
CHAIN
 62
     7
100
AcDbLine
 10
433.5301075000327
 20
131.306190669571
 30
0.0
 11
425.0301075000326
 21
131.306190669571
 31
0.0
  0
LINE
  5
23E
330
1F
100
AcDbEntity
  8
Mittelpunktmarkierung_TC_020513_DIN_
  6
CHAIN
 62
     7
100
AcDbLine
 10
429.2801075000327
 20
135.556190669571
 30
0.0
 11
429.2801075000327
 21
127.056190669571
 31
0.0
  0
LINE
  5
23F
330
1F
100
AcDbEntity
  8
Mittelpunktmarkierung_TC_020513_DIN_
  6
CHAIN
 62
     7
100
AcDbLine
 10
454.530107500033
 20
131.306190669571
 30
0.0
 11
446.030107500033
 21
131.306190669571
 31
0.0
  0
LINE
  5
240
330
1F
100
AcDbEntity
  8
Mittelpunktmarkierung_TC_020513_DIN_
  6
CHAIN
 62
     7
100
AcDbLine
 10
450.280107500033
 20
135.556190669571
 30
0.0
 11
450.280107500033
 21
127.056190669571
 31
0.0
  0
LINE
  5
241
330
1F
100
AcDbEntity
  8
Mittelpunktmarkierung_TC_020513_DIN_
  6
CHAIN
 62
     7
100
AcDbLine
 10
460.480107500033
 20
142.306190669571
 30
0.0
 11
446.080107500033
 21
142.306190669571
 31
0.0
  0
LINE
  5
242
330
1F
100
AcDbEntity
  8
Mittelpunktmarkierung_TC_020513_DIN_
  6
CHAIN
 62
     7
100
AcDbLine
 10
453.280107500033
 20
149.506190669571
 30
0.0
 11
453.280107500033
 21
135.106190669571
 31
0.0
  0
LINE
  5
243
330
1F
100
AcDbEntity
  8
Mittelpunktmarkierung_TC_020513_DIN_
  6
CHAIN
 62
     7
100
AcDbLine
 10
579.85955895287
 20
108.886190669571
 30
0.0
 11
551.3755589528699
 21
108.886190669571
 31
0.0
  0
LINE
  5
244
330
1F
100
AcDbEntity
  8
Mittelpunktmarkierung_TC_020513_DIN_
  6
CHAIN
 62
     7
100
AcDbLine
 10
565.61755895287
 20
123.128190669571
 30
0.0
 11
565.61755895287
 21
94.64419066957119
 31
0.0
  0
LINE
  5
245
330
1F
100
AcDbEntity
  8
Mittellinie_TC_020513_DIN_
  6
CHAIN
 62
     7
100
AcDbLine
 10
545.617558952848
 20
89.8061906695712
 30
0.0
 11
545.617558952848
 21
98.806190669571
 31
0.0
  0
LINE
  5
246
330
1F
100
AcDbEntity
  8
Mittellinie_TC_020513_DIN_
  6
CHAIN
 62
     7
100
AcDbLine
 10
585.36755895285
 20
89.8061906695712
 30
0.0
 11
585.36755895285
 21
98.806190669571
 31
0.0
  0
LINE
  5
247
330
1F
100
AcDbEntity
  8
Mittellinie_TC_020513_DIN_
  6
CHAIN
 62
     7
100
AcDbLine
 10
538.017558952856
 20
142.306190669571
 30
0.0
 11
545.767558952856
 21
142.306190669571
 31
0.0
  0
LINE
  5
248
330
1F
100
AcDbEntity
  8
Mittellinie_TC_020513_DIN_
  6
CHAIN
 62
     7
100
AcDbLine
 10
536.017558952856
 20
142.306190669571
 30
0.0
 11
541.617558952856
 21
142.306190669571
 31
0.0
  0
LINE
  5
249
330
1F
100
AcDbEntity
  8
Mittellinie_TC_020513_DIN_
  6
CHAIN
 62
     7
100
AcDbLine
 10
585.4675589528559
 20
142.306190669571
 30
0.0
 11
593.2175589528559
 21
142.306190669571
 31
0.0
  0
LINE
  5
24A
330
1F
100
AcDbEntity
  8
Mittellinie_TC_020513_DIN_
  6
CHAIN
 62
     7
100
AcDbLine
 10
589.617558952856
 20
142.306190669571
 30
0.0
 11
595.2175589528559
 21
142.306190669571
 31
0.0
  0
LINE
  5
24B
330
1F
100
AcDbEntity
  8
Mittellinie_TC_020513_DIN_
  6
CHAIN
 62
     7
100
AcDbLine
 10
439.7801075000327
 20
90.0791814917244
 30
0.0
 11
439.7801075000327
 21
152.355103560395
 31
0.0
  0
LINE
  5
24C
330
1F
100
AcDbEntity
  8
Mittellinie_TC_020513_DIN_
  6
CHAIN
 62
     7
100
AcDbLine
 10
480.780107500033
 20
89.8061906695712
 30
0.0
 11
480.780107500033
 21
98.806190669571
 31
0.0
  0
LINE
  5
24D
330
1F
100
AcDbEntity
  8
Mittellinie_TC_020513_DIN_
  6
CHAIN
 62
     7
100
AcDbLine
 10
471.030107500033
 20
108.886190669571
 30
0.0
 11
489.030107500033
 21
108.886190669571
 31
0.0
  0
LINE
  5
24E
330
1F
100
AcDbEntity
  8
Mittellinie_TC_020513_DIN_
  6
CHAIN
 62
     7
100
AcDbLine
 10
398.7801075000326
 20
89.8061906695712
 30
0.0
 11
398.7801075000326
 21
98.806190669571
 31
0.0
  0
LINE
  5
24F
330
1F
100
AcDbEntity
  8
Mittellinie_TC_020513_DIN_
  6
CHAIN
 62
     7
100
AcDbLine
 10
390.5301075000327
 20
108.886190669571
 30
0.0
 11
408.5301075000326
 21
108.886190669571
 31
0.0
  0
ARC
  5
6A0
330
1F
100
AcDbEntity
  8
Sichtbare_Kanten_TC_020513_DIN_
  6
Continuous
 62
     7
100
AcDbCircle
 10
441.7801075000327
 20
115.749857280707
 30
0.0
 40
0.2500000000001137
100
AcDbArc
 50
180.0
 51
299.9706156500408
  0
ARC
  5
6A1
330
1F
100
AcDbEntity
  8
Sichtbare_Kanten_TC_020513_DIN_
  6
Continuous
 62
     7
100
AcDbCircle
 10
442.7801075000326
 20
116.326523947374
 30
0.0
 40
0.25000000000025
100
AcDbArc
 50
299.9706156499494
 51
119.9706156499382
  0
ARC
  5
6A2
330
1F
100
AcDbEntity
  8
Sichtbare_Kanten_TC_020513_DIN_
  6
Continuous
 62
     7
100
AcDbCircle
 10
442.7801075000326
 20
117.306190669572
 30
0.0
 40
0.25
100
AcDbArc
 50
270.0
 51
90.0
  0
ARC
  5
6A3
330
1F
100
AcDbEntity
  8
Sichtbare_Kanten_TC_020513_DIN_
  6
Continuous
 62
     7
100
AcDbCircle
 10
442.7801075000326
 20
118.28585739177
 30
0.0
 40
0.2500000000002661
100
AcDbArc
 50
240.0293843500376
 51
60.02938434993666
  0
ARC
  5
6A4
330
1F
100
AcDbEntity
  8
Sichtbare_Kanten_TC_020513_DIN_
  6
Continuous
 62
     7
100
AcDbCircle
 10
441.7801075000327
 20
118.862524058436
 30
0.0
 40
0.2500000000001932
100
AcDbArc
 50
60.02938435007312
 51
180.0
  0
ARC
  5
6A5
330
1F
100
AcDbEntity
  8
Sichtbare_Kanten_TC_020513_DIN_
  6
Continuous
 62
     7
100
AcDbCircle
 10
436.7801075000327
 20
116.316190669571
 30
0.0
 40
0.25
100
AcDbArc
 50
180.0
 51
0.0
  0
ARC
  5
6A6
330
1F
100
AcDbEntity
  8
Sichtbare_Kanten_TC_020513_DIN_
  6
Continuous
 62
     7
100
AcDbCircle
 10
436.7801075000327
 20
118.296190669571
 30
0.0
 40
0.2499999999998863
100
AcDbArc
 50
0.0
 51
180.0
  0
ARC
  5
6A7
330
1F
100
AcDbEntity
  8
Sichtbare_Kanten_TC_020513_DIN_
  6
Continuous
 62
     7
100
AcDbCircle
 10
437.7801075000327
 20
115.749857280708
 30
0.0
 40
0.2500000000001137
100
AcDbArc
 50
180.0
 51
240.0293843500393
  0
ARC
  5
6A8
330
1F
100
AcDbEntity
  8
Sichtbare_Kanten_TC_020513_DIN_
  6
Continuous
 62
     7
100
AcDbCircle
 10
439.7801075000327
 20
114.596523947374
 30
0.0
 40
0.2499999999994043
100
AcDbArc
 50
240.0293843499237
 51
60.02938435007312
  0
ARC
  5
6A9
330
1F
100
AcDbEntity
  8
Sichtbare_Kanten_TC_020513_DIN_
  6
Continuous
 62
     7
100
AcDbCircle
 10
437.7801075000326
 20
118.862524058436
 30
0.0
 40
0.2500000000001137
100
AcDbArc
 50
0.0
 51
180.0
  0
ARC
  5
6AA
330
1F
100
AcDbEntity
  8
Sichtbare_Kanten_TC_020513_DIN_
  6
Continuous
 62
     7
100
AcDbCircle
 10
440.7801075000327
 20
115.173190614041
 30
0.0
 40
0.25
100
AcDbArc
 50
180.0
 51
0.0
  0
ARC
  5
6AB
330
1F
100
AcDbEntity
  8
Sichtbare_Kanten_TC_020513_DIN_
  6
Continuous
 62
     7
100
AcDbCircle
 10
440.7801075000327
 20
119.439190725103
 30
0.0
 40
0.25
100
AcDbArc
 50
0.0
 51
143.2525021774701
  0
ARC
  5
6AC
330
1F
100
AcDbEntity
  8
Sichtbare_Kanten_TC_020513_DIN_
  6
Continuous
 62
     7
100
AcDbCircle
 10
438.7801075000326
 20
119.439190725103
 30
0.0
 40
0.2499999999998181
100
AcDbArc
 50
36.74749782253772
 51
180.0
  0
ARC
  5
6AD
330
1F
100
AcDbEntity
  8
Sichtbare_Kanten_TC_020513_DIN_
  6
Continuous
 62
     7
100
AcDbCircle
 10
438.7801075000326
 20
116.316190669571
 30
0.0
 40
0.2499999999998863
100
AcDbArc
 50
180.0
 51
0.0
  0
ARC
  5
6AE
330
1F
100
AcDbEntity
  8
Sichtbare_Kanten_TC_020513_DIN_
  6
Continuous
 62
     7
100
AcDbCircle
 10
476.580107500033
 20
135.306190669571
 30
0.0
 40
8.0
100
AcDbArc
 50
0.0
 51
90.0
  0
ARC
  5
6AF
330
1F
100
AcDbEntity
  8
Sichtbare_Kanten_TC_020513_DIN_
  6
Continuous
 62
     7
100
AcDbCircle
 10
463.280107500033
 20
143.806190669571
 30
0.0
 40
0.4999999999999459
100
AcDbArc
 50
220.0290181763972
 51
270.0
  0
ARC
  5
6B0
330
1F
100
AcDbEntity
  8
Sichtbare_Kanten_TC_020513_DIN_
  6
Continuous
 62
     7
100
AcDbCircle
 10
447.582872163101
 20
130.621092915782
 30
0.0
 40
20.00000000000004
100
AcDbArc
 50
40.02901817645225
 51
64.00779443620848
  0
ARC
  5
6B1
330
1F
100
AcDbEntity
  8
Sichtbare_Kanten_TC_020513_DIN_
  6
Continuous
 62
     7
100
AcDbCircle
 10
453.280107500033
 20
142.306190669571
 30
0.0
 40
6.999999999999711
100
AcDbArc
 50
64.00779443621317
 51
180.0
  0
ARC
  5
6B2
330
1F
100
AcDbEntity
  8
Sichtbare_Kanten_TC_020513_DIN_
  6
Continuous
 62
     7
100
AcDbCircle
 10
446.780107500033
 20
128.806190669571
 30
0.0
 40
0.5
100
AcDbArc
 50
180.0
 51
251.6923269006372
  0
ARC
  5
6B3
330
1F
100
AcDbEntity
  8
Sichtbare_Kanten_TC_020513_DIN_
  6
Continuous
 62
     7
100
AcDbCircle
 10
451.334841714748
 20
142.572250244965
 30
0.0
 40
14.99999999999958
100
AcDbArc
 50
251.6923269007133
 51
334.1179484035669
  0
ARC
  5
6B4
330
1F
100
AcDbEntity
  8
Sichtbare_Kanten_TC_020513_DIN_
  6
Continuous
 62
     7
100
AcDbCircle
 10
465.280107500033
 20
135.806190669571
 30
0.0
 40
0.5
100
AcDbArc
 50
90.0
 51
154.1179484036069
  0
ARC
  5
6B5
330
1F
100
AcDbEntity
  8
Sichtbare_Kanten_TC_020513_DIN_
  6
Continuous
 62
     7
100
AcDbCircle
 10
476.580107500033
 20
135.306190669571
 30
0.0
 40
1.0
100
AcDbArc
 50
0.0
 51
90.0
  0
ARC
  5
6B6
330
1F
100
AcDbEntity
  8
Sichtbare_Kanten_TC_020513_DIN_
  6
Continuous
 62
     7
100
AcDbCircle
 10
477.542452585025
 20
129.98955336698
 30
0.0
 40
0.1000000000009891
100
AcDbArc
 50
90.0
 51
180.0
  0
ARC
  5
6B7
330
1F
100
AcDbEntity
  8
Sichtbare_Kanten_TC_020513_DIN_
  6
Continuous
 62
     7
100
AcDbCircle
 10
477.542452585025
 20
129.98955336698
 30
0.0
 40
1.5
100
AcDbArc
 50
90.0
 51
180.0
  0
ARC
  5
6B8
330
1F
100
AcDbEntity
  8
Sichtbare_Kanten_TC_020513_DIN_
  6
Continuous
 62
     7
100
AcDbCircle
 10
402.9801075000326
 20
135.306190669571
 30
0.0
 40
1.0
100
AcDbArc
 50
90.0
 51
180.0
  0
ARC
  5
6B9
330
1F
100
AcDbEntity
  8
Sichtbare_Kanten_TC_020513_DIN_
  6
Continuous
 62
     7
100
AcDbCircle
 10
414.2801075000327
 20
135.806190669571
 30
0.0
 40
0.4999999999999212
100
AcDbArc
 50
25.88205159643293
 51
90.0
  0
ARC
  5
6BA
330
1F
100
AcDbEntity
  8
Sichtbare_Kanten_TC_020513_DIN_
  6
Continuous
 62
     7
100
AcDbCircle
 10
428.2253732853169
 20
142.572250244965
 30
0.0
 40
15.00000000000001
100
AcDbArc
 50
205.8820515964332
 51
288.3076730992875
  0
ARC
  5
6BB
330
1F
100
AcDbEntity
  8
Sichtbare_Kanten_TC_020513_DIN_
  6
Continuous
 62
     7
100
AcDbCircle
 10
432.7801075000327
 20
128.806190669571
 30
0.0
 40
0.4999999999996581
100
AcDbArc
 50
288.3076730992948
 51
0.0
  0
ARC
  5
6BC
330
1F
100
AcDbEntity
  8
Sichtbare_Kanten_TC_020513_DIN_
  6
Continuous
 62
     7
100
AcDbCircle
 10
426.2801075000326
 20
142.306190669571
 30
0.0
 40
7.0
100
AcDbArc
 50
0.0
 51
115.9922055637914
  0
ARC
  5
6BD
330
1F
100
AcDbEntity
  8
Sichtbare_Kanten_TC_020513_DIN_
  6
Continuous
 62
     7
100
AcDbCircle
 10
431.9773428369641
 20
130.621092915782
 30
0.0
 40
19.99999999999946
100
AcDbArc
 50
115.9922055637918
 51
139.9709818235472
  0
ARC
  5
6BE
330
1F
100
AcDbEntity
  8
Sichtbare_Kanten_TC_020513_DIN_
  6
Continuous
 62
     7
100
AcDbCircle
 10
416.2801075000327
 20
143.806190669571
 30
0.0
 40
0.5
100
AcDbArc
 50
270.0
 51
319.9709818235777
  0
ARC
  5
6BF
330
1F
100
AcDbEntity
  8
Sichtbare_Kanten_TC_020513_DIN_
  6
Continuous
 62
     7
100
AcDbCircle
 10
402.9801075000326
 20
135.306190669571
 30
0.0
 40
8.0
100
AcDbArc
 50
90.0
 51
180.0
  0
ARC
  5
6C0
330
1F
100
AcDbEntity
  8
Sichtbare_Kanten_TC_020513_DIN_
  6
Continuous
 62
     7
100
AcDbCircle
 10
421.4621452051603
 20
153.806190669571
 30
0.0
 40
0.4999999999999089
100
AcDbArc
 50
159.7314654157446
 51
214.7314654156929
  0
ARC
  5
6C1
330
1F
100
AcDbEntity
  8
Sichtbare_Kanten_TC_020513_DIN_
  6
Continuous
 62
     7
100
AcDbCircle
 10
426.2801075000326
 20
155.306190669571
 30
0.0
 40
4.500000000000008
100
AcDbArc
 50
61.04497562813997
 51
159.7314654157202
  0
ARC
  5
6C2
330
1F
100
AcDbEntity
  8
Sichtbare_Kanten_TC_020513_DIN_
  6
Continuous
 62
     7
100
AcDbCircle
 10
430.5403891808608
 20
163.006190669571
 30
0.0
 40
4.300000000000002
100
AcDbArc
 50
241.0449756281398
 51
90.0
  0
ARC
  5
6C3
330
1F
100
AcDbEntity
  8
Sichtbare_Kanten_TC_020513_DIN_
  6
Continuous
 62
     7
100
AcDbCircle
 10
422.5403891808608
 20
132.306190669571
 30
0.0
 40
35.0
100
AcDbArc
 50
90.0
 51
121.4966928421464
  0
ARC
  5
6C4
330
1F
100
AcDbEntity
  8
Sichtbare_Kanten_TC_020513_DIN_
  6
Continuous
 62
     7
100
AcDbCircle
 10
402.2801075000327
 20
150.667176004566
 30
0.0
 40
1.0
100
AcDbArc
 50
270.0
 51
321.655939335373
  0
ARC
  5
6C5
330
1F
100
AcDbEntity
  8
Sichtbare_Kanten_TC_020513_DIN_
  6
Continuous
 62
     7
100
AcDbCircle
 10
406.2801075000326
 20
153.306190669571
 30
0.0
 40
0.5000000000001515
100
AcDbArc
 50
51.65593933537055
 51
141.6559393353283
  0
ARC
  5
6C6
330
1F
100
AcDbEntity
  8
Sichtbare_Kanten_TC_020513_DIN_
  6
Continuous
 62
     7
100
AcDbCircle
 10
416.3938643892672
 20
145.306190669571
 30
0.0
 40
0.4999999999999349
100
AcDbArc
 50
5.00000000002006
 51
51.65593933537566
  0
ARC
  5
6C7
330
1F
100
AcDbEntity
  8
Sichtbare_Kanten_TC_020513_DIN_
  6
Continuous
 62
     7
100
AcDbCircle
 10
402.0177624150402
 20
129.98955336698
 30
0.0
 40
1.499999999999943
100
AcDbArc
 50
0.0
 51
90.00000000000217
  0
ARC
  5
6C8
330
1F
100
AcDbEntity
  8
Sichtbare_Kanten_TC_020513_DIN_
  6
Continuous
 62
     7
100
AcDbCircle
 10
402.0177624150402
 20
129.98955336698
 30
0.0
 40
0.1000000000000227
100
AcDbArc
 50
0.0
 51
90.00000000003257
  0
ARC
  5
6C9
330
1F
100
AcDbEntity
  8
Sichtbare_Kanten_TC_020513_DIN_
  6
Continuous
 62
     7
100
AcDbCircle
 10
463.166350610798
 20
145.306190669571
 30
0.0
 40
0.5000000000003632
100
AcDbArc
 50
128.3440606646601
 51
174.9999999999822
  0
ARC
  5
6CA
330
1F
100
AcDbEntity
  8
Sichtbare_Kanten_TC_020513_DIN_
  6
Continuous
 62
     7
100
AcDbCircle
 10
473.280107500033
 20
153.306190669571
 30
0.0
 40
0.4999999999995653
100
AcDbArc
 50
38.34406066472827
 51
128.3440606646601
  0
ARC
  5
6CB
330
1F
100
AcDbEntity
  8
Sichtbare_Kanten_TC_020513_DIN_
  6
Continuous
 62
     7
100
AcDbCircle
 10
477.280107500033
 20
150.667176004566
 30
0.0
 40
1.000000000000119
100
AcDbArc
 50
218.3440606646108
 51
270.0
  0
ARC
  5
6CC
330
1F
100
AcDbEntity
  8
Sichtbare_Kanten_TC_020513_DIN_
  6
Continuous
 62
     7
100
AcDbCircle
 10
457.019825819204
 20
132.306190669571
 30
0.0
 40
35.00000000000033
100
AcDbArc
 50
58.50330715785255
 51
90.0
  0
ARC
  5
6CD
330
1F
100
AcDbEntity
  8
Sichtbare_Kanten_TC_020513_DIN_
  6
Continuous
 62
     7
100
AcDbCircle
 10
449.019825819205
 20
163.006190669571
 30
0.0
 40
4.300000000000011
100
AcDbArc
 50
90.0
 51
298.9550243718543
  0
ARC
  5
6CE
330
1F
100
AcDbEntity
  8
Sichtbare_Kanten_TC_020513_DIN_
  6
Continuous
 62
     7
100
AcDbCircle
 10
453.280107500033
 20
155.306190669571
 30
0.0
 40
4.500000000000132
100
AcDbArc
 50
20.26853458427986
 51
118.9550243718638
  0
ARC
  5
6CF
330
1F
100
AcDbEntity
  8
Sichtbare_Kanten_TC_020513_DIN_
  6
Continuous
 62
     7
100
AcDbCircle
 10
458.098069794905
 20
153.806190669571
 30
0.0
 40
0.4999999999998834
100
AcDbArc
 50
325.2685345843145
 51
20.26853458426669
  0
ARC
  5
6D0
330
1F
100
AcDbEntity
  8
Sichtbare_Kanten_TC_020513_DIN_
  6
Continuous
 62
     7
100
AcDbCircle
 10
565.61755895285
 20
108.886190669571
 30
0.0
 40
12.32999999999595
100
AcDbArc
 50
0.0
 51
180.0
  0
ARC
  5
6D1
330
1F
100
AcDbEntity
  8
Sichtbare_Kanten_TC_020513_DIN_
  6
Continuous
 62
     7
100
AcDbCircle
 10
593.417558952856
 20
138.306190669571
 30
0.0
 40
0.7000000000000455
100
AcDbArc
 50
180.0
 51
0.0
  0
ARC
  5
6D2
330
1F
100
AcDbEntity
  8
Sichtbare_Kanten_TC_020513_DIN_
  6
Continuous
 62
     7
100
AcDbCircle
 10
593.417558952856
 20
146.306190669571
 30
0.0
 40
0.7000000000000455
100
AcDbArc
 50
0.0
 51
180.0
  0
ARC
  5
6D3
330
1F
100
AcDbEntity
  8
Sichtbare_Kanten_TC_020513_DIN_
  6
Continuous
 62
     7
100
AcDbCircle
 10
537.817558952856
 20
146.306190669571
 30
0.0
 40
0.7000000000000455
100
AcDbArc
 50
0.0
 51
180.0
  0
ARC
  5
6D4
330
1F
100
AcDbEntity
  8
Sichtbare_Kanten_TC_020513_DIN_
  6
Continuous
 62
     7
100
AcDbCircle
 10
537.817558952856
 20
138.306190669571
 30
0.0
 40
0.6999999999999318
100
AcDbArc
 50
180.0
 51
0.0
  0
ARC
  5
6D5
330
1F
100
AcDbEntity
  8
Sichtbare_Kanten_TC_020513_DIN_
  6
Continuous
 62
     7
100
AcDbCircle
 10
541.917558952847
 20
132.88955336698
 30
0.0
 40
2.800000000000068
100
AcDbArc
 50
180.0
 51
270.0
  0
ARC
  5
6D6
330
1F
100
AcDbEntity
  8
Sichtbare_Kanten_TC_020513_DIN_
  6
Continuous
 62
     7
100
AcDbCircle
 10
541.917558952847
 20
132.88955336698
 30
0.0
 40
1.399999999999977
100
AcDbArc
 50
180.0
 51
270.0
  0
ARC
  5
6D7
330
1F
100
AcDbEntity
  8
Sichtbare_Kanten_TC_020513_DIN_
  6
Continuous
 62
     7
100
AcDbCircle
 10
555.334196255439
 20
129.651898451973
 30
0.0
 40
0.5
100
AcDbArc
 50
270.0
 51
0.0
  0
ARC
  5
6D8
330
1F
100
AcDbEntity
  8
Sichtbare_Kanten_TC_020513_DIN_
  6
Continuous
 62
     7
100
AcDbCircle
 10
575.900921650258
 20
129.651898451973
 30
0.0
 40
0.5
100
AcDbArc
 50
180.0
 51
270.0
  0
ARC
  5
6D9
330
1F
100
AcDbEntity
  8
Sichtbare_Kanten_TC_020513_DIN_
  6
Continuous
 62
     7
100
AcDbCircle
 10
582.1509216502569
 20
159.167176004566
 30
0.0
 40
1.499999999999938
100
AcDbArc
 50
226.2398789709711
 51
270.0
  0
ARC
  5
6DA
330
1F
100
AcDbEntity
  8
Sichtbare_Kanten_TC_020513_DIN_
  6
Continuous
 62
     7
100
AcDbCircle
 10
585.0401070715919
 20
158.667176004566
 30
0.0
 40
1.0
100
AcDbArc
 50
270.0
 51
320.0000000000277
  0
ARC
  5
6DB
330
1F
100
AcDbEntity
  8
Sichtbare_Kanten_TC_020513_DIN_
  6
Continuous
 62
     7
100
AcDbCircle
 10
582.1509216502569
 20
149.417176004566
 30
0.0
 40
0.25
100
AcDbArc
 50
90.0
 51
164.9999999999579
  0
ARC
  5
6DC
330
1F
100
AcDbEntity
  8
Sichtbare_Kanten_TC_020513_DIN_
  6
Continuous
 62
     7
100
AcDbCircle
 10
549.084196255438
 20
159.167176004566
 30
0.0
 40
1.5
100
AcDbArc
 50
270.0
 51
313.7601210290321
  0
ARC
  5
6DD
330
1F
100
AcDbEntity
  8
Sichtbare_Kanten_TC_020513_DIN_
  6
Continuous
 62
     7
100
AcDbCircle
 10
546.195010834103
 20
158.667176004566
 30
0.0
 40
0.999999999999646
100
AcDbArc
 50
219.9999999999764
 51
270.0
  0
ARC
  5
6DE
330
1F
100
AcDbEntity
  8
Sichtbare_Kanten_TC_020513_DIN_
  6
Continuous
 62
     7
100
AcDbCircle
 10
549.084196255438
 20
149.417176004566
 30
0.0
 40
0.2500000000008719
100
AcDbArc
 50
15.00000000003533
 51
90.0
  0
ARC
  5
6DF
330
1F
100
AcDbEntity
  8
Sichtbare_Kanten_TC_020513_DIN_
  6
Continuous
 62
     7
100
AcDbCircle
 10
589.317558952847
 20
132.88955336698
 30
0.0
 40
2.799999999999017
100
AcDbArc
 50
270.0
 51
0.0
  0
ARC
  5
6E0
330
1F
100
AcDbEntity
  8
Sichtbare_Kanten_TC_020513_DIN_
  6
Continuous
 62
     7
100
AcDbCircle
 10
589.317558952847
 20
132.88955336698
 30
0.0
 40
1.400000000000006
100
AcDbArc
 50
270.0
 51
0.0
  0
ARC
  5
6E1
330
1F
100
AcDbEntity
  8
Sichtbare_Kanten_TC_020513_DIN_
  6
Continuous
 62
     7
100
AcDbCircle
 10
589.517558952856
 20
132.168535754564
 30
0.0
 40
0.1000000000000227
100
AcDbArc
 50
180.0
 51
270.0
  0
ARC
  5
6E2
330
1F
100
AcDbEntity
  8
Sichtbare_Kanten_TC_020513_DIN_
  6
Continuous
 62
     7
100
AcDbCircle
 10
589.517558952856
 20
132.168535754564
 30
0.0
 40
1.5
100
AcDbArc
 50
180.0
 51
206.9141492018855
  0
ARC
  5
6E3
330
1F
100
AcDbEntity
  8
Sichtbare_Kanten_TC_020513_DIN_
  6
Continuous
 62
     7
100
AcDbCircle
 10
541.7175589528559
 20
132.168535754564
 30
0.0
 40
0.0999999999999943
100
AcDbArc
 50
270.0
 51
0.0
  0
ARC
  5
6E4
330
1F
100
AcDbEntity
  8
Sichtbare_Kanten_TC_020513_DIN_
  6
Continuous
 62
     7
100
AcDbCircle
 10
541.7175589528559
 20
132.168535754564
 30
0.0
 40
1.500000000000216
100
AcDbArc
 50
333.0858507981146
 51
0.0
  0
ARC
  5
6E5
330
1F
100
AcDbEntity
  8
Stich_1-Linien_TC_020513_DIN_
  6
DASHED_SPACE
 62
     7
100
AcDbCircle
 10
429.2801075000327
 20
131.306190669571
 30
0.0
 40
48.93394997171645
100
AcDbArc
 50
133.243632308582
 51
180.0
  0
ARC
  5
6E6
330
1F
100
AcDbEntity
  8
Stich_1-Linien_TC_020513_DIN_
  6
DASHED_SPACE
 62
     7
100
AcDbCircle
 10
450.280107500033
 20
131.306190669571
 30
0.0
 40
48.933949971716
100
AcDbArc
 50
0.0
 51
46.7563676914186
  0
CIRCLE
  5
6E7
330
1F
100
AcDbEntity
  8
Sichtbare_Kanten_TC_020513_DIN_
  6
Continuous
 62
     7
100
AcDbCircle
 10
453.280107500033
 20
142.306190669571
 30
0.0
 40
4.699999999999989
  0
CIRCLE
  5
6E8
330
1F
100
AcDbEntity
  8
Sichtbare_Kanten_TC_020513_DIN_
  6
Continuous
 62
     7
100
AcDbCircle
 10
426.2801075000326
 20
142.306190669571
 30
0.0
 40
4.699999999999989
  0
CIRCLE
  5
6E9
330
1F
100
AcDbEntity
  8
Sichtbare_Kanten_TC_020513_DIN_
  6
Continuous
 62
     7
100
AcDbCircle
 10
450.280107500033
 20
131.306190669571
 30
0.0
 40
1.75
  0
CIRCLE
  5
6EA
330
1F
100
AcDbEntity
  8
Sichtbare_Kanten_TC_020513_DIN_
  6
Continuous
 62
     7
100
AcDbCircle
 10
429.2801075000327
 20
131.306190669571
 30
0.0
 40
1.75
  0
CIRCLE
  5
6EB
330
1F
100
AcDbEntity
  8
Sichtbare_Kanten_TC_020513_DIN_
  6
Continuous
 62
     7
100
AcDbCircle
 10
565.61755895285
 20
108.886190669571
 30
0.0
 40
7.580000000000041
  0
CIRCLE
  5
6EC
330
1F
100
AcDbEntity
  8
Sichtbare_Kanten_TC_020513_DIN_
  6
Continuous
 62
     7
100
AcDbCircle
 10
565.61755895285
 20
108.886190669571
 30
0.0
 40
10.57999999999595
  0
SPLINE
  5
6ED
330
1F
100
AcDbEntity
  8
Sichtbare_Kanten_TC_020513_DIN_
  6
Continuous
 62
     7
100
AcDbSpline
210
0.0
220
0.0
230
1.0
 70
     8
 71
     3
 72
    19
 73
    15
 74
    13
 42
0.000000001
 43
0.0000000001
 44
0.00000001
 40
0.0
 40
0.0
 40
0.0
 40
0.0
 40
0.3474606674151167
 40
0.6949175350300828
 40
0.8665696488950546
 40
1.038221191656131
 40
1.207484861390599
 40
1.376745209810137
 40
1.543251855853689
 40
1.709751057160005
 40
1.873443934533355
 40
2.037147336109637
 40
2.278188137688431
 40
2.518986528947484
 40
2.518986528947484
 40
2.518986528947484
 40
2.518986528947484
 10
577.7449440029919
 20
140.071820530892
 30
0.0
 10
577.8608757729048
 20
140.077077493284
 30
0.0
 10
578.0927380437536
 20
140.0875913752526
 30
0.0
 10
578.3748098499248
 20
140.1586646929648
 30
0.0
 10
578.5905939517586
 20
140.2392316687834
 30
0.0
 10
578.7453307000721
 20
140.3122254820284
 30
0.0
 10
578.8928074889303
 20
140.3972716520748
 30
0.0
 10
579.0312355952499
 20
140.4934313789409
 30
0.0
 10
579.160245883082
 20
140.6004630733092
 30
0.0
 10
579.2781671731701
 20
140.7169703848835
 30
0.0
 10
579.3848308987119
 20
140.8427068500193
 30
0.0
 10
579.493706069042
 20
140.9979430084684
 30
0.0
 10
579.5988397853134
 20
141.1869654637194
 30
0.0
 10
579.6508190868234
 20
141.3392117995684
 30
0.0
 10
579.676795655571
 20
141.415296672946
 30
0.0
 11
577.7449440029919
 21
140.071820530892
 31
0.0
 11
578.0913233222825
 21
140.0992118171312
 31
0.0
 11
578.4289842896437
 21
140.181134625687
 31
0.0
 11
578.5896929087918
 21
140.2414437300881
 31
0.0
 11
578.7449440029923
 21
140.3146649705225
 31
0.0
 11
578.8915413109518
 21
140.3992783227677
 31
0.0
 11
579.0305192223655
 21
140.4958920169357
 31
0.0
 11
579.1586287936148
 21
140.6022517892677
 31
0.0
 11
579.2770328892301
 21
140.719309272826
 31
0.0
 11
579.3828291945649
 21
140.8442192411986
 31
0.0
 11
579.4769948105611
 21
140.9781283179287
 31
0.0
 11
579.5922492282886
 21
141.1898287862446
 31
0.0
 11
579.676795655571
 21
141.415296672946
 31
0.0
  0
SPLINE
  5
6EE
330
1F
100
AcDbEntity
  8
Sichtbare_Kanten_TC_020513_DIN_
  6
Continuous
 62
     7
100
AcDbSpline
210
0.0
220
0.0
230
1.0
 70
     8
 71
     3
 72
    19
 73
    15
 74
    13
 42
0.000000001
 43
0.0000000001
 44
0.00000001
 40
0.0
 40
0.0
 40
0.0
 40
0.0
 40
0.3474606674142101
 40
0.6949175350292867
 40
0.8665696488940456
 40
1.038221191655267
 40
1.207484861389367
 40
1.376745209808995
 40
1.543251855853006
 40
1.709751057159602
 40
1.873443934533186
 40
2.037147336109175
 40
2.278188137687774
 40
2.51898652894704
 40
2.51898652894704
 40
2.51898652894704
 40
2.51898652894704
 10
577.7449440029919
 20
140.663486097329
 30
0.0
 10
577.8608757729044
 20
140.668743059721
 30
0.0
 10
578.0927380437532
 20
140.6792569416897
 30
0.0
 10
578.3748098499237
 20
140.7503302594017
 30
0.0
 10
578.5905939517577
 20
140.8308972352205
 30
0.0
 10
578.745330700071
 20
140.9038910484652
 30
0.0
 10
578.8928074889293
 20
140.9889372185114
 30
0.0
 10
579.0312355952494
 20
141.0850969453773
 30
0.0
 10
579.1602458830814
 20
141.1921286397456
 30
0.0
 10
579.27816717317
 20
141.3086359513204
 30
0.0
 10
579.3848308987118
 20
141.434372416456
 30
0.0
 10
579.4937060690417
 20
141.5896085749052
 30
0.0
 10
579.5988397853137
 20
141.7786310301557
 30
0.0
 10
579.6508190868229
 20
141.9308773660052
 30
0.0
 10
579.67679565557
 20
142.006962239383
 30
0.0
 11
577.7449440029919
 21
140.663486097329
 31
0.0
 11
578.0913233222816
 21
140.6908773835682
 31
0.0
 11
578.4289842896429
 21
140.772800192124
 31
0.0
 11
578.5896929087908
 21
140.8331092965251
 31
0.0
 11
578.7449440029915
 21
140.9063305369594
 31
0.0
 11
578.8915413109507
 21
140.9909438892042
 31
0.0
 11
579.0305192223647
 21
141.087557583372
 31
0.0
 11
579.1586287936144
 21
141.1939173557042
 31
0.0
 11
579.2770328892299
 21
141.3109748392628
 31
0.0
 11
579.3828291945649
 21
141.4358848076355
 31
0.0
 11
579.4769948105609
 21
141.5697938843654
 31
0.0
 11
579.5922492282884
 21
141.7814943526811
 31
0.0
 11
579.67679565557
 21
142.006962239383
 31
0.0
  0
SPLINE
  5
6EF
330
1F
100
AcDbEntity
  8
Sichtbare_Kanten_TC_020513_DIN_
  6
Continuous
 62
     7
100
AcDbSpline
210
0.0
220
0.0
230
1.0
 70
     8
 71
     3
 72
    19
 73
    15
 74
    13
 42
0.000000001
 43
0.0000000001
 44
0.00000001
 40
0.0
 40
0.0
 40
0.0
 40
0.0
 40
0.3221862205368336
 40
0.644386261834343
 40
0.8094705328395958
 40
0.9745562229281034
 40
1.142463280812273
 40
1.310374909567619
 40
1.480895931774234
 40
1.651417687594492
 40
1.824033462668874
 40
1.996661195040839
 40
2.257865073019205
 40
2.51889498788968
 40
2.51889498788968
 40
2.51889498788968
 40
2.51889498788968
 10
551.558322250124
 20
141.415296672946
 30
0.0
 10
551.5945359130014
 20
141.3138623523074
 30
0.0
 10
551.6669648057241
 20
141.1109893652719
 30
0.0
 10
551.8163564521578
 20
140.8832989217638
 30
0.0
 10
551.9567101289944
 20
140.7171226832045
 30
0.0
 10
552.0750573000494
 20
140.6003058483904
 30
0.0
 10
552.2037060698426
 20
140.4935718057411
 30
0.0
 10
552.3424860821702
 20
140.3971588188108
 30
0.0
 10
552.4896202351301
 20
140.3122996245568
 30
0.0
 10
552.6446706489241
 20
140.2392378221318
 30
0.0
 10
552.8058275869761
 20
140.1787359211614
 30
0.0
 10
553.0004011622649
 20
140.1234801305533
 30
0.0
 10
553.2289414366533
 20
140.0807366384914
 30
0.0
 10
553.4031157536665
 20
140.0747919017818
 30
0.0
 10
553.4901739027019
 20
140.071820530892
 30
0.0
 11
551.558322250124
 21
141.415296672946
 31
0.0
 11
551.6785866613196
 21
141.1163979722317
 31
0.0
 11
551.8518698141237
 21
140.844762523514
 31
0.0
 11
551.9585640268756
 21
140.7187896621398
 31
0.0
 11
552.0759603403283
 21
140.6027233408537
 31
0.0
 11
552.2051532204358
 21
140.4954760561386
 31
0.0
 11
552.3430210299997
 21
140.399628351953
 31
0.0
 11
552.4907082815685
 21
140.3143881327588
 31
0.0
 11
552.6449373792204
 21
140.2416484952789
 31
0.0
 11
552.8065470704374
 21
140.1809977432713
 31
0.0
 11
552.9725358124964
 21
140.1335839088341
 31
0.0
 11
553.2296018995951
 21
140.0872752354886
 31
0.0
 11
553.4901739027019
 21
140.071820530892
 31
0.0
  0
SPLINE
  5
6F0
330
1F
100
AcDbEntity
  8
Sichtbare_Kanten_TC_020513_DIN_
  6
Continuous
 62
     7
100
AcDbSpline
210
0.0
220
0.0
230
1.0
 70
     8
 71
     3
 72
    19
 73
    15
 74
    13
 42
0.000000001
 43
0.0000000001
 44
0.00000001
 40
0.0
 40
0.0
 40
0.0
 40
0.0
 40
0.3221862205370722
 40
0.6443862618345336
 40
0.8094705328399033
 40
0.9745562229285726
 40
1.142463280812742
 40
1.310374909568259
 40
1.480895931774775
 40
1.651417687594943
 40
1.824033462669441
 40
1.996661195041617
 40
2.257865073019759
 40
2.518894987889325
 40
2.518894987889325
 40
2.518894987889325
 40
2.518894987889325
 10
551.558322250123
 20
142.006962239383
 30
0.0
 10
551.5945359130009
 20
141.9055279187445
 30
0.0
 10
551.6669648057235
 20
141.702654931709
 30
0.0
 10
551.8163564521574
 20
141.4749644882008
 30
0.0
 10
551.956710128994
 20
141.3087882496414
 30
0.0
 10
552.0750573000493
 20
141.1919714148274
 30
0.0
 10
552.2037060698424
 20
141.0852373721779
 30
0.0
 10
552.3424860821705
 20
140.9888243852479
 30
0.0
 10
552.48962023513
 20
140.9039651909938
 30
0.0
 10
552.6446706489241
 20
140.8309033885687
 30
0.0
 10
552.805827586976
 20
140.7704014875983
 30
0.0
 10
553.0004011622652
 20
140.7151456969904
 30
0.0
 10
553.228941436653
 20
140.6724022049284
 30
0.0
 10
553.4031157536656
 20
140.6664574682187
 30
0.0
 10
553.490173902701
 20
140.663486097329
 30
0.0
 11
551.558322250123
 21
142.006962239383
 31
0.0
 11
551.6785866613192
 21
141.7080635386686
 31
0.0
 11
551.8518698141232
 21
141.4364280899511
 31
0.0
 11
551.9585640268753
 21
141.3104552285767
 31
0.0
 11
552.0759603403282
 21
141.1943889072906
 31
0.0
 11
552.2051532204357
 21
141.0871416225756
 31
0.0
 11
552.3430210299998
 21
140.99129391839
 31
0.0
 11
552.4907082815685
 21
140.9060536991958
 31
0.0
 11
552.6449373792203
 21
140.8333140617158
 31
0.0
 11
552.8065470704374
 21
140.7726633097082
 31
0.0
 11
552.9725358124966
 21
140.7252494752711
 31
0.0
 11
553.2296018995951
 21
140.6789408019256
 31
0.0
 11
553.490173902701
 21
140.663486097329
 31
0.0
  0
LWPOLYLINE
  5
6F1
330
1F
100
AcDbEntity
  8
Sichtbare_Kanten_TC_020513_DIN_
  6
Continuous
 62
     7
100
AcDbPolyline
 90
       25
 70
     0
 43
0.0
 10
480.309082986788
 20
146.923667728935
 10
480.287973405794
 20
146.970032095944
 10
480.267722131686
 20
147.016753196751
 10
480.248326780275
 20
147.063819408451
 10
480.229796888308
 20
147.111218512093
 10
480.212132455782
 20
147.15893888477
 10
480.195340635256
 20
147.206968605553
 10
480.179423810915
 20
147.255295157467
 10
480.164386751131
 20
147.30390721563
 10
480.150234224276
 20
147.352792561089
 10
480.136968614535
 20
147.401938974892
 10
480.124594690279
 20
147.45133453611
 10
480.113114835696
 20
147.500967919861
 10
480.102543355898
 20
147.550802171265
 10
480.092882635073
 20
147.600799143349
 10
480.084135057406
 20
147.650947511231
 10
480.076300622896
 20
147.701234161888
 10
480.069386484103
 20
147.7516459823
 10
480.063387872652
 20
147.802171647583
 10
480.058307172732
 20
147.852798044716
 10
480.054149152712
 20
147.903512060677
 10
480.050911428408
 20
147.954301774536
 10
480.048598768191
 20
148.005154669319
 10
480.047208787874
 20
148.056057632004
 10
480.046743871645
 20
148.106998741661
  0
LWPOLYLINE
  5
6F2
330
1F
100
AcDbEntity
  8
Sichtbare_Kanten_TC_020513_DIN_
  6
Continuous
 62
     7
100
AcDbPolyline
 90
       25
 70
     0
 43
0.0
 10
481.446744920687
 20
148.106998741661
 10
481.446976186709
 20
148.081528484856
 10
481.44767236896
 20
148.05607670549
 10
481.448828699068
 20
148.030650556122
 10
481.45044756122
 20
148.005255401169
 10
481.45252657123
 20
147.979898393189
 10
481.455065729098
 20
147.954585492645
 10
481.458065034823
 20
147.929322660004
 10
481.46152210422
 20
147.904116451775
 10
481.465439321474
 20
147.878973424469
 10
481.469814302401
 20
147.853898942505
 10
481.474644662813
 20
147.828900754486
 10
481.479930402712
 20
147.803983628784
 10
481.485669137911
 20
147.779166638886
 10
481.491856100039
 20
147.754468858277
 10
481.498488904909
 20
147.729895651375
 10
481.505565168337
 20
147.705452978646
 10
481.513084890322
 20
147.681146800553
 10
481.521043302492
 20
147.656983673607
 10
481.529438020663
 20
147.632968962227
 10
481.538271429018
 20
147.609108626877
 10
481.547536375002
 20
147.585409224068
 10
481.557232858614
 20
147.561876118218
 10
481.567358495669
 20
147.538515269791
 10
481.577913286165
 20
147.515333235298
  0
LWPOLYLINE
  5
6F3
330
1F
100
AcDbEntity
  8
Sichtbare_Kanten_TC_020513_DIN_
  6
Continuous
 62
     7
100
AcDbPolyline
 90
       25
 70
     0
 43
0.0
 10
480.537425996737
 20
159.667175948655
 10
480.603138925509
 20
159.758993327652
 10
480.672571184115
 20
159.848172605072
 10
480.745648862795
 20
159.934594571625
 10
480.822257520632
 20
160.018097102677
 10
480.902075292544
 20
160.098326146637
 10
480.984954359011
 20
160.175161302124
 10
481.070782663302
 20
160.248519122635
 10
481.159448148684
 20
160.318320930039
 10
481.250841142611
 20
160.384483277832
 10
481.344847204165
 20
160.446925103699
 10
481.441356660799
 20
160.505564153229
 10
481.540255071596
 20
160.560319364106
 10
481.64143276401
 20
160.611108481919
 10
481.744699003176
 20
160.65781706575
 10
481.849700929598
 20
160.700280606781
 10
481.956290723757
 20
160.73844903711
 10
482.06433963962
 20
160.772277057206
 10
482.173711778597
 20
160.801721751724
 10
482.284261705355
 20
160.826734244858
 10
482.395679475741
 20
160.847241818939
 10
482.507774354891
 20
160.863219440018
 10
482.620410444216
 20
160.874650418793
 10
482.733447076754
 20
160.88152045015
 10
482.846745969729
 20
160.883812844788
  0
LWPOLYLINE
  5
6F4
330
1F
100
AcDbEntity
  8
Sichtbare_Kanten_TC_020513_DIN_
  6
Continuous
 62
     7
100
AcDbPolyline
 90
       25
 70
     0
 43
0.0
 10
482.846745969729
 20
159.483812987839
 10
482.775098802523
 20
159.481978356873
 10
482.703785421328
 20
159.476494729554
 10
482.632939340548
 20
159.467389524018
 10
482.562696458773
 20
159.45469373468
 10
482.493197442965
 20
159.438435971771
 10
482.424575807528
 20
159.418643653427
 10
482.356972219423
 20
159.395347774063
 10
482.290522577242
 20
159.368576943909
 10
482.225481988863
 20
159.338418185745
 10
482.162198545412
 20
159.305039584671
 10
482.100789071993
 20
159.268528163468
 10
482.041370393709
 20
159.228963792359
 10
481.984054567293
 20
159.186429917847
 10
481.928956033663
 20
159.141008794342
 10
481.876186849551
 20
159.092781484162
 10
481.825861455874
 20
159.041831433808
 10
481.778146745638
 20
158.988301694428
 10
481.733312131838
 20
158.932498633896
 10
481.691443445162
 20
158.874559342896
 10
481.652616979555
 20
158.814604222809
 10
481.616901876406
 20
158.752754867112
 10
481.584369661288
 20
158.689129293
 10
481.55509424396
 20
158.623850286042
 10
481.529149534182
 20
158.557037055527
  0
LWPOLYLINE
  5
6F5
330
1F
100
AcDbEntity
  8
Sichtbare_Kanten_TC_020513_DIN_
  6
Continuous
 62
     7
100
AcDbPolyline
 90
       25
 70
     0
 43
0.0
 10
481.529149534182
 20
158.557037055527
 10
481.524254800753
 20
158.543145597016
 10
481.518957139925
 20
158.527498185669
 10
481.513339998202
 20
158.510190188919
 10
481.507493974642
 20
158.491321742569
 10
481.501502515749
 20
158.470990598236
 10
481.495458604769
 20
158.449294507538
 10
481.489445688204
 20
158.426333606278
 10
481.483551980929
 20
158.40220445398
 10
481.477865697817
 20
158.377004802262
 10
481.472475053744
 20
158.35083597902
 10
481.467468263582
 20
158.323793351685
 10
481.462985994295
 20
158.296546876465
 10
481.459195138888
 20
158.270659387146
 10
481.456045629458
 20
158.246222674881
 10
481.453477861361
 20
158.223246276413
 10
481.451429845766
 20
158.201739728485
 10
481.449846746401
 20
158.181714952027
 10
481.44866895862
 20
158.163179099594
 10
481.447832109408
 20
158.146142900025
 10
481.447283746676
 20
158.130617082154
 10
481.446959497408
 20
158.116611182724
 10
481.44679975696
 20
158.104135930573
 10
481.446749689059
 20
158.093199670349
 10
481.446744920687
 20
158.08381313089
  0
LWPOLYLINE
  5
6F6
330
1F
100
AcDbEntity
  8
Sichtbare_Kanten_TC_020513_DIN_
  6
Continuous
 62
     7
100
AcDbPolyline
 90
       25
 70
     0
 43
0.0
 10
479.129991056399
 20
159.888170897995
 10
479.110044958071
 20
159.897099673783
 10
479.0900726337
 20
159.906027257477
 10
479.070081235842
 20
159.914954841171
 10
479.050065996126
 20
159.923882424866
 10
479.030031682925
 20
159.932808816468
 10
479.009978296236
 20
159.941736400162
 10
478.989903451876
 20
159.950662791764
 10
478.969811918215
 20
159.959590375458
 10
478.949703695254
 20
159.96851676706
 10
478.929578782992
 20
159.977444350754
 10
478.909437181429
 20
159.986373126541
 10
478.889278890566
 20
159.995301902329
 10
478.86911106296
 20
160.004229486023
 10
478.848931314425
 20
160.013158261811
 10
478.828742029146
 20
160.022085845505
 10
478.808545591311
 20
160.0310134292
 10
478.788339616732
 20
160.039939820801
 10
478.768126489596
 20
160.048867404495
 10
478.747906209902
 20
160.057793796097
 10
478.727683546023
 20
160.066720187699
 10
478.707453729586
 20
160.075647771393
 10
478.687219144778
 20
160.084575355088
 10
478.666984559969
 20
160.093504130875
 10
478.646745206789
 20
160.102431714569
  0
LWPOLYLINE
  5
6F7
330
1F
100
AcDbEntity
  8
Sichtbare_Kanten_TC_020513_DIN_
  6
Continuous
 62
     7
100
AcDbPolyline
 90
       25
 70
     0
 43
0.0
 10
481.446744920687
 20
158.991385638748
 10
481.446702005343
 20
159.004660785233
 10
481.44657325931
 20
159.017935931717
 10
481.446361066775
 20
159.031209886109
 10
481.446060659365
 20
159.0444838405
 10
481.445676805452
 20
159.057756602799
 10
481.445207120852
 20
159.07103055719
 10
481.444651605562
 20
159.084304511582
 10
481.444010259585
 20
159.09757727388
 10
481.443283082918
 20
159.110851228272
 10
481.442472459749
 20
159.124125182663
 10
481.441576005892
 20
159.137400329148
 10
481.440593721346
 20
159.150674283539
 10
481.439525606112
 20
159.163949430024
 10
481.438371660189
 20
159.177224576508
 10
481.437134267763
 20
159.190498530899
 10
481.435811044649
 20
159.203772485291
 10
481.434404375033
 20
159.217045247589
 10
481.432909490542
 20
159.230319201981
 10
481.431331159548
 20
159.243593156372
 10
481.429669382052
 20
159.256865918671
 10
481.427919389681
 20
159.270139873062
 10
481.426085950808
 20
159.283413827454
 10
481.424169065432
 20
159.296688973938
 10
481.422166349367
 20
159.309964120423
  0
LWPOLYLINE
  5
6F8
330
1F
100
AcDbEntity
  8
Sichtbare_Kanten_TC_020513_DIN_
  6
Continuous
 62
     7
100
AcDbPolyline
 90
       25
 70
     0
 43
0.0
 10
481.422166349367
 20
159.309964120423
 10
481.420416356997
 20
159.32132595781
 10
481.418241979555
 20
159.334938466584
 10
481.415526391939
 20
159.350527465378
 10
481.412157537417
 20
159.367824733292
 10
481.408025743441
 20
159.386558473145
 10
481.403011800722
 20
159.406458079849
 10
481.397010805086
 20
159.427254140412
 10
481.389901163058
 20
159.448673665558
 10
481.381577970461
 20
159.470447242295
 10
481.371922018008
 20
159.492304265534
 10
481.360826017336
 20
159.513974130188
 10
481.348173143343
 20
159.535186231171
 10
481.333848955111
 20
159.555668771301
 10
481.317777158694
 20
159.575110614334
 10
481.300291540102
 20
159.592797696625
 10
481.28152084537
 20
159.608561933075
 10
481.26147937961
 20
159.622416436707
 10
481.240183832125
 20
159.63437789682
 10
481.217648508028
 20
159.644460618531
 10
481.193887712435
 20
159.652676522766
 10
481.168918134646
 20
159.659042298828
 10
481.142751695589
 20
159.663571059738
 10
481.115405084566
 20
159.666277110611
 10
481.086892606692
 20
159.667175948655
  0
LWPOLYLINE
  5
6F9
330
1F
100
AcDbEntity
  8
Sichtbare_Kanten_TC_020513_DIN_
  6
Continuous
 62
     7
100
AcDbPolyline
 90
       25
 70
     0
 43
0.0
 10
480.139243127779
 20
159.667175948655
 10
480.091485502199
 20
159.667714774643
 10
480.043196203188
 20
159.669334828888
 10
479.994406225161
 20
159.672040879761
 10
479.945151330904
 20
159.675837695633
 10
479.895467283205
 20
159.680727660691
 10
479.845389844851
 20
159.686716735398
 10
479.79494762607
 20
159.693808496033
 10
479.744181158022
 20
159.702007710968
 10
479.693121435122
 20
159.711317956482
 10
479.641835214571
 20
159.721739232575
 10
479.591583730654
 20
159.733021199738
 10
479.543060781435
 20
159.744934976136
 10
479.496361734347
 20
159.757344663178
 10
479.451579572634
 20
159.77011674646
 10
479.408809663729
 20
159.783116519486
 10
479.368144990877
 20
159.796209275757
 10
479.329680921511
 20
159.80926150087
 10
479.293515207247
 20
159.822137296234
 10
479.25973606296
 20
159.834703147446
 10
479.228441240267
 20
159.846823155915
 10
479.1997261066
 20
159.858364999329
 10
479.173683645205
 20
159.869192779099
 10
479.150406839327
 20
159.87917298082
 10
479.129991056399
 20
159.888170897995
  0
LWPOLYLINE
  5
6FA
330
1F
100
AcDbEntity
  8
Sichtbare_Kanten_TC_020513_DIN_
  6
Continuous
 62
     7
100
AcDbPolyline
 90
       25
 70
     0
 43
0.0
 10
397.9822988528769
 20
147.515333235298
 10
397.9928560275595
 20
147.538515269791
 10
398.0029840487997
 20
147.561876118218
 10
398.012678148226
 20
147.585409224068
 10
398.0219430942099
 20
147.609108626877
 10
398.0307741183798
 20
147.632968962227
 10
398.0391712207358
 20
147.656983673607
 10
398.0471296329062
 20
147.681146800553
 10
398.0546493548911
 20
147.705452978646
 10
398.0617256183188
 20
147.729895651375
 10
398.0683584231894
 20
147.754468858277
 10
398.0745477695029
 20
147.779166638886
 10
398.0802841205161
 20
147.803983628784
 10
398.0855722446005
 20
147.828900754486
 10
398.0904026050131
 20
147.853898942505
 10
398.0947752017539
 20
147.878973424469
 10
398.0986900348227
 20
147.904116451775
 10
398.1021518725912
 20
147.929322660004
 10
398.1051511783164
 20
147.954585492645
 10
398.107687951998
 20
147.979898393189
 10
398.1097669620078
 20
148.005255401169
 10
398.1113882083456
 20
148.030650556122
 10
398.1125421542685
 20
148.05607670549
 10
398.1132383365195
 20
148.081528484856
 10
398.113471986727
 20
148.106998741661
  0
LWPOLYLINE
  5
6FB
330
1F
100
AcDbEntity
  8
Sichtbare_Kanten_TC_020513_DIN_
  6
Continuous
 62
     7
100
AcDbPolyline
 90
       25
 70
     0
 43
0.0
 10
399.513470651583
 20
148.106998741661
 10
399.5130081195395
 20
148.056057632004
 10
399.5116157550375
 20
148.005154669319
 10
399.5093030948203
 20
147.954301774536
 10
399.5060653705161
 20
147.903512060677
 10
399.5019073504965
 20
147.852798044716
 10
399.4968290347617
 20
147.802171647583
 10
399.4908304233115
 20
147.7516459823
 10
399.4839115161459
 20
147.701234161888
 10
399.4760818500082
 20
147.650947511231
 10
399.4673318881552
 20
147.600799143349
 10
399.45767116733
 20
147.550802171265
 10
399.4470996875327
 20
147.500967919861
 10
399.4356222171347
 20
147.45133453611
 10
399.4232482928793
 20
147.401938974892
 10
399.4099826831381
 20
147.352792561089
 10
399.3958301562827
 20
147.30390721563
 10
399.3807907123129
 20
147.255295157467
 10
399.3648738879721
 20
147.206968605553
 10
399.3480844516318
 20
147.15893888477
 10
399.3304176349203
 20
147.111218512093
 10
399.3118877429526
 20
147.063819408451
 10
399.2924947757284
 20
147.016753196751
 10
399.272238733248
 20
146.970032095944
 10
399.2511339206259
 20
146.923667728935
  0
LWPOLYLINE
  5
6FC
330
1F
100
AcDbEntity
  8
Sichtbare_Kanten_TC_020513_DIN_
  6
Continuous
 62
     7
100
AcDbPolyline
 90
       25
 70
     0
 43
0.0
 10
398.0310649890463
 20
158.557037055527
 10
398.0051250476401
 20
158.623844325577
 10
397.9758567828696
 20
158.689107835327
 10
397.9433412570517
 20
158.752707183396
 10
397.9076499957602
 20
158.814523160492
 10
397.8688545245688
 20
158.874436557327
 10
397.8270311374228
 20
158.932328164612
 10
397.7822561282675
 20
158.988078773056
 10
397.7346010226767
 20
159.041567981278
 10
397.6842327136557
 20
159.092585980927
 10
397.6314277667563
 20
159.140863359009
 10
397.576305391268
 20
159.186315476929
 10
397.518989564852
 20
159.228863656555
 10
397.459585191683
 20
159.268428027664
 10
397.3982114810507
 20
159.304931104218
 10
397.3349876422446
 20
159.338291823899
 10
397.270023347811
 20
159.368432700669
 10
397.2035188693564
 20
159.395245254074
 10
397.1358413714926
 20
159.418579280411
 10
397.0671625155966
 20
159.438397824799
 10
396.9976110477011
 20
159.454674661194
 10
396.9273300189536
 20
159.46738237146
 10
396.8564529437582
 20
159.476492345368
 10
396.7851228732626
 20
159.481978356873
 10
396.7134685534995
 20
159.483812987839
  0
LWPOLYLINE
  5
6FD
330
1F
100
AcDbEntity
  8
Sichtbare_Kanten_TC_020513_DIN_
  6
Continuous
 62
     7
100
AcDbPolyline
 90
       25
 70
     0
 43
0.0
 10
396.7134685534995
 20
160.883812844788
 10
396.8267984408896
 20
160.881519258057
 10
396.9397611636679
 20
160.874653995072
 10
397.0522232074301
 20
160.863245666062
 10
397.1640462894003
 20
160.847321689163
 10
397.2750968951743
 20
160.826908290421
 10
397.385236741976
 20
160.802034080063
 10
397.4943323154013
 20
160.772726476227
 10
397.6022453326743
 20
160.739011704956
 10
397.7088422793906
 20
160.700917184387
 10
397.8139801044028
 20
160.658473908936
 10
397.9172534961264
 20
160.611838042771
 10
398.0184001941245
 20
160.561140716111
 10
398.1173152942221
 20
160.506460607086
 10
398.2138700503867
 20
160.447875201737
 10
398.3079643268149
 20
160.385461986099
 10
398.3994693774741
 20
160.319299638306
 10
398.4882802981894
 20
160.249465644394
 10
398.5742778796713
 20
160.17603629831
 10
398.6573476810019
 20
160.099092662369
 10
398.7373561877768
 20
160.018725335633
 10
398.8140268344443
 20
159.935210883652
 10
398.8872118014853
 20
159.848707854782
 10
398.956830026583
 20
159.759327113663
 10
399.0227909106772
 20
159.667175948655
  0
LWPOLYLINE
  5
6FE
330
1F
100
AcDbEntity
  8
Sichtbare_Kanten_TC_020513_DIN_
  6
Continuous
 62
     7
100
AcDbPolyline
 90
       25
 70
     0
 43
0.0
 10
398.113471986727
 20
158.08381313089
 10
398.1134672183554
 20
158.093199670349
 10
398.113414766268
 20
158.104135930573
 10
398.1132574100058
 20
158.116611182724
 10
398.1129331607382
 20
158.130617082154
 10
398.1123800296347
 20
158.146142900025
 10
398.1115455646078
 20
158.163179099594
 10
398.1103677768271
 20
158.181714952027
 10
398.1087846774619
 20
158.201739728485
 10
398.1067390460532
 20
158.223246276413
 10
398.1041688937705
 20
158.246222674881
 10
398.1010217685263
 20
158.270659387146
 10
398.0972309131186
 20
158.296546876465
 10
398.0927486438315
 20
158.323793351685
 10
398.0877370852988
 20
158.35083597902
 10
398.0823488254111
 20
158.377004802262
 10
398.0766649264853
 20
158.40220445398
 10
398.0707712192099
 20
158.426333606278
 10
398.064758302645
 20
158.449294507538
 10
398.0587120074789
 20
158.470990598236
 10
398.0527229327719
 20
158.491321742569
 10
398.0468769092123
 20
158.510190188919
 10
398.0412597674887
 20
158.527498185669
 10
398.0359621066611
 20
158.543145597016
 10
398.0310649890463
 20
158.557037055527
  0
LWPOLYLINE
  5
6FF
330
1F
100
AcDbEntity
  8
Sichtbare_Kanten_TC_020513_DIN_
  6
Continuous
 62
     7
100
AcDbPolyline
 90
       25
 70
     0
 43
0.0
 10
398.4733219165366
 20
159.667175948655
 10
398.4477109927695
 20
159.666452348267
 10
398.4230251330893
 20
159.664274394547
 10
398.3992834109824
 20
159.660631358658
 10
398.3764953631918
 20
159.655514895951
 10
398.3546705264609
 20
159.648913085495
 10
398.3338232059042
 20
159.640818774735
 10
398.3139724750082
 20
159.631221234833
 10
398.2951183337729
 20
159.620109736954
 10
398.2772846240561
 20
159.607475936447
 10
398.2604761142294
 20
159.59331029657
 10
398.2447118777792
 20
159.5775997043
 10
398.2299776095908
 20
159.560321509873
 10
398.2162590045493
 20
159.541449487244
 10
398.2035465259116
 20
159.520958602463
 10
398.1918306369345
 20
159.498827397858
 10
398.1810970325034
 20
159.475029647385
 10
398.1716222781699
 20
159.450459420716
 10
398.163578035311
 20
159.426228940521
 10
398.1568403262656
 20
159.402730405365
 10
398.1512708682578
 20
159.380357205902
 10
398.1467361468832
 20
159.359502732788
 10
398.1431121844809
 20
159.3405568004
 10
398.1402606982748
 20
159.323912799393
 10
398.1380481738608
 20
159.309964120423
  0
LWPOLYLINE
  5
700
330
1F
100
AcDbEntity
  8
Sichtbare_Kanten_TC_020513_DIN_
  6
Continuous
 62
     7
100
AcDbPolyline
 90
       25
 70
     0
 43
0.0
 10
398.1380481738608
 20
159.309964120423
 10
398.1360454577963
 20
159.296688973938
 10
398.1341285724203
 20
159.283413827454
 10
398.1322927493613
 20
159.270139873062
 10
398.1305475253622
 20
159.256865918671
 10
398.1288833636801
 20
159.243593156372
 10
398.1273050326865
 20
159.230319201981
 10
398.1258125323813
 20
159.217045247589
 10
398.124401094393
 20
159.203772485291
 10
398.1230802554648
 20
159.190498530899
 10
398.1218404788534
 20
159.177224576508
 10
398.1206913013022
 20
159.163949430024
 10
398.1196231860678
 20
159.150674283539
 10
398.1186409015219
 20
159.137400329148
 10
398.1177444476645
 20
159.124125182663
 10
398.116929056124
 20
159.110851228272
 10
398.1162042636435
 20
159.09757727388
 10
398.1155653018515
 20
159.084304511582
 10
398.1150074023764
 20
159.07103055719
 10
398.1145401019614
 20
159.057756602799
 10
398.1141538638632
 20
159.0444838405
 10
398.1138534564536
 20
159.031209886109
 10
398.1136388797324
 20
159.017935931717
 10
398.1135149020712
 20
159.004660785233
 10
398.113471986727
 20
158.991385638748
  0
LWPOLYLINE
  5
701
330
1F
100
AcDbEntity
  8
Sichtbare_Kanten_TC_020513_DIN_
  6
Continuous
 62
     7
100
AcDbPolyline
 90
       25
 70
     0
 43
0.0
 10
400.9134693164389
 20
160.102431714569
 10
400.8932323474448
 20
160.093504130875
 10
400.8729953784506
 20
160.084575355088
 10
400.8527631778281
 20
160.075647771393
 10
400.8325309772055
 20
160.066720187699
 10
400.8123083133261
 20
160.057793796097
 10
400.7920904178183
 20
160.048867404495
 10
400.7718772906821
 20
160.039939820801
 10
400.7516689319174
 20
160.0310134292
 10
400.7314748782675
 20
160.022085845505
 10
400.7112855929892
 20
160.013158261811
 10
400.691105844454
 20
160.004229486023
 10
400.670935632662
 20
159.995301902329
 10
400.6507797259848
 20
159.986373126541
 10
400.6306381244223
 20
159.977444350754
 10
400.6105108279745
 20
159.96851676706
 10
400.5904026050131
 20
159.959590375458
 10
400.570313455538
 20
159.950662791764
 10
400.5502386111777
 20
159.941736400162
 10
400.5301828403037
 20
159.932808816468
 10
400.5101509112875
 20
159.923882424866
 10
400.4901332873862
 20
159.914954841171
 10
400.4701395053427
 20
159.906027257477
 10
400.4501695651572
 20
159.897099673783
 10
400.4302234668295
 20
159.888170897995
  0
LWPOLYLINE
  5
702
330
1F
100
AcDbEntity
  8
Sichtbare_Kanten_TC_020513_DIN_
  6
Continuous
 62
     7
100
AcDbPolyline
 90
       25
 70
     0
 43
0.0
 10
400.4302234668295
 20
159.888170897995
 10
400.4097337741415
 20
159.879140794312
 10
400.3863782901328
 20
159.86912721399
 10
400.3602476138632
 20
159.858263671433
 10
400.3314418811362
 20
159.846688449417
 10
400.3000469226401
 20
159.834532678162
 10
400.2661676425497
 20
159.821935832535
 10
400.2298946399252
 20
159.809029042755
 10
400.1913185138266
 20
159.795950591599
 10
400.1505394000571
 20
159.782835185562
 10
400.1076526660483
 20
159.769816339051
 10
400.0627489108603
 20
159.757031142746
 10
400.0159282702963
 20
159.744613111054
 10
399.9672813434164
 20
159.732699334656
 10
399.9169034976523
 20
159.72142452005
 10
399.8657484073203
 20
159.711058080231
 10
399.8148460406821
 20
159.701801478897
 10
399.764239313082
 20
159.693651139771
 10
399.7139520663779
 20
159.686599910294
 10
399.664027215914
 20
159.680646598374
 10
399.6144933719199
 20
159.675785243546
 10
399.5653839129965
 20
159.672012269532
 10
399.5167417544882
 20
159.669322907959
 10
399.4685907382529
 20
159.667712390457
 10
399.4209737796347
 20
159.667175948655
  0
LWPOLYLINE
  5
703
330
1F
100
AcDbEntity
  8
Sichtbare_Kanten_TC_020513_DIN_
  6
Continuous
 62
     7
100
AcDbPolyline
 90
       25
 70
     0
 43
0.0
 10
581.305341717282
 20
147.515333235298
 10
581.315169331113
 20
147.538515269791
 10
581.324993368665
 20
147.561876118218
 10
581.334815022031
 20
147.585409224068
 10
581.344633099118
 20
147.609108626877
 10
581.354449984113
 20
147.632968962227
 10
581.3642668691069
 20
147.656983673607
 10
581.374082562009
 20
147.681146800553
 10
581.383899447003
 20
147.705452978646
 10
581.393717524091
 20
147.729895651375
 10
581.403539177457
 20
147.754468858277
 10
581.413363215009
 20
147.779166638886
 10
581.423192020932
 20
147.803983628784
 10
581.433019634763
 20
147.828900754486
 10
581.442843672315
 20
147.853898942505
 10
581.452665325681
 20
147.878973424469
 10
581.462483402768
 20
147.904116451775
 10
581.472300287763
 20
147.929322660004
 10
581.4821171727571
 20
147.954585492645
 10
581.491932865659
 20
147.979898393189
 10
581.501749750653
 20
148.005255401169
 10
581.511567827741
 20
148.030650556122
 10
581.521389481107
 20
148.05607670549
 10
581.531213518659
 20
148.081528484856
 10
581.541041132489
 20
148.106998741661
  0
LWPOLYLINE
  5
704
330
1F
100
AcDbEntity
  8
Sichtbare_Kanten_TC_020513_DIN_
  6
Continuous
 62
     7
100
AcDbPolyline
 90
       25
 70
     0
 43
0.0
 10
581.541041132489
 20
148.106998741661
 10
581.531213518659
 20
148.056057632004
 10
581.521389481107
 20
148.005154669319
 10
581.511567827741
 20
147.954301774536
 10
581.501749750654
 20
147.903512060677
 10
581.491932865659
 20
147.852798044716
 10
581.482117172758
 20
147.802171647583
 10
581.472300287763
 20
147.7516459823
 10
581.462483402769
 20
147.701234161888
 10
581.452665325681
 20
147.650947511231
 10
581.442843672315
 20
147.600799143349
 10
581.433019634763
 20
147.550802171265
 10
581.423192020933
 20
147.500967919861
 10
581.413363215009
 20
147.45133453611
 10
581.403539177457
 20
147.401938974892
 10
581.393717524091
 20
147.352792561089
 10
581.383899447004
 20
147.30390721563
 10
581.374082562009
 20
147.255295157467
 10
581.364266869108
 20
147.206968605553
 10
581.354449984113
 20
147.15893888477
 10
581.344633099119
 20
147.111218512093
 10
581.334815022031
 20
147.063819408451
 10
581.324993368665
 20
147.016753196751
 10
581.315169331113
 20
146.970032095944
 10
581.305341717283
 20
146.923667728935
  0
LWPOLYLINE
  5
705
330
1F
100
AcDbEntity
  8
Sichtbare_Kanten_TC_020513_DIN_
  6
Continuous
 62
     7
100
AcDbPolyline
 90
       25
 70
     0
 43
0.0
 10
587.990756031552
 20
159.667175948655
 10
587.944188114682
 20
159.666452348267
 10
587.897183891813
 20
159.664274394547
 10
587.8498053517729
 20
159.660631358658
 10
587.8021144833959
 20
159.655514895951
 10
587.75417327551
 20
159.648913085495
 10
587.706046101133
 20
159.640818774735
 10
587.6577901807219
 20
159.631221234833
 10
587.609469887296
 20
159.620109736954
 10
587.561147209684
 20
159.607475936447
 10
587.512884136716
 20
159.59331029657
 10
587.46474504141
 20
159.5775997043
 10
587.41682290701
 20
159.560321509873
 10
587.369217869321
 20
159.541449487244
 10
587.322020527402
 20
159.520958602463
 10
587.275323864499
 20
159.498827397858
 10
587.2292256322299
 20
159.475029647385
 10
587.185430523435
 20
159.450459420716
 10
587.145497795621
 20
159.426228940521
 10
587.1094346013459
 20
159.402730405365
 10
587.077262398282
 20
159.380357205902
 10
587.048993107358
 20
159.359502732788
 10
587.024638649503
 20
159.3405568004
 10
587.004220482389
 20
159.323912799393
 10
586.987748142758
 20
159.309964120423
  0
LWPOLYLINE
  5
706
330
1F
100
AcDbEntity
  8
Sichtbare_Kanten_TC_020513_DIN_
  6
Continuous
 62
     7
100
AcDbPolyline
 90
       25
 70
     0
 43
0.0
 10
586.802654263059
 20
159.309964120423
 10
586.809883114378
 20
159.322242677246
 10
586.8185043301979
 20
159.336389243637
 10
586.828520294706
 20
159.352179706131
 10
586.839931007902
 20
159.36939233545
 10
586.852736469785
 20
159.387801826035
 10
586.866941448728
 20
159.407184064423
 10
586.8825435605451
 20
159.427317321335
 10
586.89954518942
 20
159.447976291214
 10
586.917948719541
 20
159.468936860596
 10
586.9377541509069
 20
159.489977300202
 10
586.958961483518
 20
159.510873496567
 10
586.98157310156
 20
159.531400144135
 10
587.005567547361
 20
159.551317632233
 10
587.030451294462
 20
159.570089519059
 10
587.05600499777
 20
159.587485730683
 10
587.082190510313
 20
159.603420436417
 10
587.10896253256
 20
159.617804229294
 10
587.136278149168
 20
159.630550086533
 10
587.164072987119
 20
159.641561448609
 10
587.192058559934
 20
159.650678575073
 10
587.220120426694
 20
159.657838285004
 10
587.248196598569
 20
159.663001239334
 10
587.2762298551
 20
159.666126906906
 10
587.304158207456
 20
159.667175948655
  0
LWPOLYLINE
  5
707
330
1F
100
AcDbEntity
  8
Sichtbare_Kanten_TC_020513_DIN_
  6
Continuous
 62
     7
100
AcDbPolyline
 90
       25
 70
     0
 43
0.0
 10
586.987748142758
 20
159.309964120423
 10
586.972405907193
 20
159.296688973938
 10
586.957056519071
 20
159.283413827454
 10
586.941695210019
 20
159.270139873062
 10
586.926324364225
 20
159.256865918671
 10
586.910943981687
 20
159.243593156372
 10
586.8955564465911
 20
159.230319201981
 10
586.880159374753
 20
159.217045247589
 10
586.8647551503569
 20
159.203772485291
 10
586.849341389218
 20
159.190498530899
 10
586.833922859708
 20
159.177224576508
 10
586.818494793454
 20
159.163949430024
 10
586.803059574643
 20
159.150674283539
 10
586.787621971646
 20
159.137400329148
 10
586.772177216092
 20
159.124125182663
 10
586.756727692166
 20
159.110851228272
 10
586.741275784055
 20
159.09757727388
 10
586.725819107572
 20
159.084304511582
 10
586.710360046903
 20
159.07103055719
 10
586.694898602048
 20
159.057756602799
 10
586.679434773007
 20
159.0444838405
 10
586.663968559781
 20
159.031209886109
 10
586.648499962369
 20
159.017935931717
 10
586.633028980771
 20
159.004660785233
 10
586.617557999173
 20
158.991385638748
  0
LWPOLYLINE
  5
708
330
1F
100
AcDbEntity
  8
Sichtbare_Kanten_TC_020513_DIN_
  6
Continuous
 62
     7
100
AcDbPolyline
 90
       25
 70
     0
 43
0.0
 10
586.617557999173
 20
158.991385638748
 10
586.625294682066
 20
159.004660785233
 10
586.633028980772
 20
159.017935931717
 10
586.6407632794779
 20
159.031209886109
 10
586.648497578184
 20
159.0444838405
 10
586.656229492704
 20
159.057756602799
 10
586.663959023038
 20
159.07103055719
 10
586.671688553373
 20
159.084304511582
 10
586.679418083707
 20
159.09757727388
 10
586.68714284567
 20
159.110851228272
 10
586.694867607633
 20
159.124125182663
 10
586.70258998541
 20
159.137400329148
 10
586.710309979002
 20
159.150674283539
 10
586.7180275884069
 20
159.163949430024
 10
586.725740429441
 20
159.177224576508
 10
586.733450886289
 20
159.190498530899
 10
586.741156574766
 20
159.203772485291
 10
586.748859879056
 20
159.217045247589
 10
586.756558414976
 20
159.230319201981
 10
586.764252182523
 20
159.243593156372
 10
586.7719411816989
 20
159.256865918671
 10
586.7796277966889
 20
159.270139873062
 10
586.787307259122
 20
159.283413827454
 10
586.794981953184
 20
159.296688973938
 10
586.802654263059
 20
159.309964120423
  0
LWPOLYLINE
  5
709
330
1F
100
AcDbEntity
  8
Sichtbare_Kanten_TC_020513_DIN_
  6
Continuous
 62
     7
100
AcDbPolyline
 90
       25
 70
     0
 43
0.0
 10
589.417560097257
 20
160.102431714569
 10
589.417486187498
 20
160.093504130875
 10
589.417266842405
 20
160.084575355088
 10
589.416899677793
 20
160.075647771393
 10
589.416389462034
 20
160.066720187699
 10
589.415731426756
 20
160.057793796097
 10
589.414925571959
 20
160.048867404495
 10
589.413976666014
 20
160.039939820801
 10
589.4128799405499
 20
160.0310134292
 10
589.411637779753
 20
160.022085845505
 10
589.410250183622
 20
160.013158261811
 10
589.408714767973
 20
160.004229486023
 10
589.40703391699
 20
159.995301902329
 10
589.40521001486
 20
159.986373126541
 10
589.403238293211
 20
159.977444350754
 10
589.401121136228
 20
159.96851676706
 10
589.398858543913
 20
159.959590375458
 10
589.396450516264
 20
159.950662791764
 10
589.393899437467
 20
159.941736400162
 10
589.391200539152
 20
159.932808816468
 10
589.388358589689
 20
159.923882424866
 10
589.385371204893
 20
159.914954841171
 10
589.3822407689489
 20
159.906027257477
 10
589.378962513487
 20
159.897099673783
 10
589.3755412068759
 20
159.888170897995
  0
LWPOLYLINE
  5
70A
330
1F
100
AcDbEntity
  8
Sichtbare_Kanten_TC_020513_DIN_
  6
Continuous
 62
     7
100
AcDbPolyline
 90
       25
 70
     0
 43
0.0
 10
587.996549603025
 20
159.888170897995
 10
587.998261448423
 20
159.897099673783
 10
587.999899384062
 20
159.906027257477
 10
588.0014657941259
 20
159.914954841171
 10
588.002958294432
 20
159.923882424866
 10
588.004379269163
 20
159.932808816468
 10
588.0057287183209
 20
159.941736400162
 10
588.007004257719
 20
159.950662791764
 10
588.008208271543
 20
159.959590375458
 10
588.009340759794
 20
159.96851676706
 10
588.010399338285
 20
159.977444350754
 10
588.011384007017
 20
159.986373126541
 10
588.012297150175
 20
159.995301902329
 10
588.0131363835729
 20
160.004229486023
 10
588.013904091398
 20
160.013158261811
 10
588.014597889463
 20
160.022085845505
 10
588.015220161955
 20
160.0310134292
 10
588.015768524687
 20
160.039939820801
 10
588.016242977659
 20
160.048867404495
 10
588.016645905058
 20
160.057793796097
 10
588.0169749226969
 20
160.066720187699
 10
588.017230030577
 20
160.075647771393
 10
588.0174136128829
 20
160.084575355088
 10
588.017523285429
 20
160.093504130875
 10
588.017559048216
 20
160.102431714569
  0
LWPOLYLINE
  5
70B
330
1F
100
AcDbEntity
  8
Sichtbare_Kanten_TC_020513_DIN_
  6
Continuous
 62
     7
100
AcDbPolyline
 90
       25
 70
     0
 43
0.0
 10
589.3755412068759
 20
159.888170897995
 10
589.371902939359
 20
159.879140794312
 10
589.3675923314489
 20
159.86912721399
 10
589.362533089201
 20
159.858263671433
 10
589.356644150297
 20
159.846688449417
 10
589.349842068235
 20
159.834532678162
 10
589.342045780699
 20
159.821935832535
 10
589.333176609556
 20
159.809029042755
 10
589.323153492491
 20
159.795950591599
 10
589.311892983
 20
159.782835185562
 10
589.299314018766
 20
159.769816339051
 10
589.285337921659
 20
159.757031142746
 10
589.269883629362
 20
159.744613111054
 10
589.252867695371
 20
159.732699334656
 10
589.234209057371
 20
159.72142452005
 10
589.214143749754
 20
159.711058080231
 10
589.193010326902
 20
159.701801478897
 10
589.170815941373
 20
159.693651139771
 10
589.147572514097
 20
159.686599910294
 10
589.123287197629
 20
159.680646598374
 10
589.097974297086
 20
159.675785243546
 10
589.071640965025
 20
159.672012269532
 10
589.044296738187
 20
159.669322907959
 10
589.015953537504
 20
159.667712390457
 10
588.986618515531
 20
159.667175948655
  0
LWPOLYLINE
  5
70C
330
1F
100
AcDbEntity
  8
Sichtbare_Kanten_TC_020513_DIN_
  6
Continuous
 62
     7
100
AcDbPolyline
 90
       25
 70
     0
 43
0.0
 10
587.8020882573529
 20
159.667175948655
 10
587.816355225126
 20
159.667684972321
 10
587.830102440397
 20
159.669206082856
 10
587.843329903166
 20
159.671728551422
 10
587.856037613432
 20
159.675240457093
 10
587.86822318701
 20
159.679733455216
 10
587.879889008085
 20
159.685196816956
 10
587.891035076658
 20
159.691617429291
 10
587.901661392729
 20
159.698988139664
 10
587.911765572111
 20
159.707295835053
 10
587.9213380780619
 20
159.716519057785
 10
587.9303479161659
 20
159.726602971588
 10
587.938809391538
 20
159.737520158326
 10
587.946734425108
 20
159.749246776139
 10
587.9541373219889
 20
159.761762559448
 10
587.961032387297
 20
159.775042474305
 10
587.967400547544
 20
159.788970887696
 10
587.973074909727
 20
159.80300778154
 10
587.978079315702
 20
159.816920697724
 10
587.982456680815
 20
159.830537974869
 10
587.986252304594
 20
159.843687951599
 10
587.989513870756
 20
159.856198966538
 10
587.992289063017
 20
159.867898166214
 10
587.994618412535
 20
159.878612697159
 10
587.996549603025
 20
159.888170897995
  0
LWPOLYLINE
  5
70D
330
1F
100
AcDbEntity
  8
Sichtbare_Kanten_TC_020513_DIN_
  6
Continuous
 62
     7
100
AcDbPolyline
 90
       25
 70
     0
 43
0.0
 10
580.702033039609
 20
158.557037055527
 10
580.674376484433
 20
158.623844325577
 10
580.6467759576229
 20
158.689107835327
 10
580.619211193601
 20
158.752707183396
 10
580.59166788725
 20
158.814523160492
 10
580.5641245808989
 20
158.874436557327
 10
580.536565777341
 20
158.932328164612
 10
580.5089724030889
 20
158.988078773056
 10
580.481326576749
 20
159.041567981278
 10
580.45366048483
 20
159.092585980927
 10
580.42605161337
 20
159.140863359009
 10
580.398482080975
 20
159.186315476929
 10
580.3709363904389
 20
159.228863656555
 10
580.343394276181
 20
159.268428027664
 10
580.315839048901
 20
159.304931104218
 10
580.288252827207
 20
159.338291823899
 10
580.260617729703
 20
159.368432700669
 10
580.232945677319
 20
159.395245254074
 10
580.205322500745
 20
159.418579280411
 10
580.177737471142
 20
159.438397824799
 10
580.150173899213
 20
159.454674661194
 10
580.122613903561
 20
159.46738237146
 10
580.0950384107019
 20
159.476492345368
 10
580.067430731335
 20
159.481978356873
 10
580.039771791974
 20
159.483812987839
  0
LWPOLYLINE
  5
70E
330
1F
100
AcDbEntity
  8
Sichtbare_Kanten_TC_020513_DIN_
  6
Continuous
 62
     7
100
AcDbPolyline
 90
       25
 70
     0
 43
0.0
 10
580.039771791974
 20
160.883812844788
 10
580.067402121106
 20
160.880150735413
 10
580.094981190244
 20
160.869202554261
 10
580.122525688687
 20
160.851020753418
 10
580.150054689923
 20
160.825662553345
 10
580.177586075345
 20
160.793182790314
 10
580.205136534253
 20
160.753635108506
 10
580.232725140134
 20
160.707077920472
 10
580.260366198102
 20
160.653570830857
 10
580.287983414212
 20
160.593391597306
 10
580.315552946607
 20
160.526775062119
 10
580.343092676679
 20
160.453877389466
 10
580.370620485822
 20
160.374855935608
 10
580.398154255429
 20
160.289865672623
 10
580.425711866895
 20
160.199066340958
 10
580.453312393705
 20
160.102612912689
 10
580.48096060423
 20
160.000705659424
 10
580.508595701734
 20
159.893833339249
 10
580.536217686216
 20
159.782273709809
 10
580.563846823255
 20
159.666247308289
 10
580.591497417966
 20
159.545984208618
 10
580.619137283842
 20
159.421942174469
 10
580.646761652509
 20
159.294471681153
 10
580.67438721327
 20
159.163826644455
 10
580.702033039609
 20
159.030259788071
  0
LWPOLYLINE
  5
70F
330
1F
100
AcDbEntity
  8
Sichtbare_Kanten_TC_020513_DIN_
  6
Continuous
 62
     7
100
AcDbPolyline
 90
       25
 70
     0
 43
0.0
 10
581.113461252729
 20
158.08381313089
 10
581.0995542970101
 20
158.093199670349
 10
581.083794828931
 20
158.104135930573
 10
581.066377159635
 20
158.116611182724
 10
581.047495600263
 20
158.130617082154
 10
581.02734565405
 20
158.146142900025
 10
581.006122824231
 20
158.163179099594
 10
580.984020229856
 20
158.181714952027
 10
580.9612345662509
 20
158.201739728485
 10
580.937960144559
 20
158.223246276413
 10
580.914392468015
 20
158.246222674881
 10
580.890727039853
 20
158.270659387146
 10
580.867156979123
 20
158.296546876465
 10
580.843942162076
 20
158.323793351685
 10
580.822398659268
 20
158.35083597902
 10
580.8028995957769
 20
158.377004802262
 10
580.785341259519
 20
158.40220445398
 10
580.769617554227
 20
158.426333606278
 10
580.755621191541
 20
158.449294507538
 10
580.7432484593779
 20
158.470990598236
 10
580.732393261472
 20
158.491321742569
 10
580.722949501554
 20
158.510190188919
 10
580.7148122754489
 20
158.527498185669
 10
580.70787548689
 20
158.543145597016
 10
580.702033039609
 20
158.557037055527
  0
LWPOLYLINE
  5
710
330
1F
100
AcDbEntity
  8
Sichtbare_Kanten_TC_020513_DIN_
  6
Continuous
 62
     7
100
AcDbPolyline
 90
       25
 70
     0
 43
0.0
 10
580.702033039609
 20
159.030259788071
 10
580.718939301054
 20
158.953587949311
 10
580.737042423765
 20
158.881343543564
 10
580.756026503126
 20
158.813546836411
 10
580.77557205824
 20
158.750214517151
 10
580.795365568677
 20
158.691368043457
 10
580.815087553541
 20
158.637027680909
 10
580.834422108213
 20
158.587211310898
 10
580.853068825284
 20
158.541903436219
 10
580.871590372602
 20
158.499323070084
 10
580.890321728269
 20
158.458478391205
 10
580.909154411832
 20
158.419398009812
 10
580.927978750745
 20
158.382106959854
 10
580.946685072462
 20
158.34663265947
 10
580.965163704435
 20
158.313000142609
 10
580.983307358305
 20
158.281235635315
 10
581.001005169431
 20
158.251367747818
 10
581.018149849454
 20
158.223420321976
 10
581.034629341642
 20
158.197421968018
 10
581.050337549726
 20
158.173397719895
 10
581.065162416975
 20
158.15137380365
 10
581.078996655027
 20
158.131376445328
 10
581.091730591337
 20
158.113434255158
 10
581.1032545533579
 20
158.097569882904
 10
581.113461252729
 20
158.08381313089
  0
LWPOLYLINE
  5
711
330
1F
100
AcDbEntity
  8
Sichtbare_Kanten_TC_020513_DIN_
  6
Continuous
 62
     7
100
AcDbPolyline
 90
       25
 70
     0
 43
0.0
 10
550.121656652967
 20
158.08381313089
 10
550.131863352338
 20
158.097569882904
 10
550.143387314359
 20
158.113434255158
 10
550.156121250669
 20
158.131376445328
 10
550.169955488721
 20
158.15137380365
 10
550.18478035597
 20
158.173397719895
 10
550.200488564054
 20
158.197421968018
 10
550.216968056242
 20
158.223420321976
 10
550.234112736265
 20
158.251367747818
 10
550.251810547391
 20
158.281235635315
 10
550.2699542012609
 20
158.313000142609
 10
550.288432833234
 20
158.34663265947
 10
550.307139154951
 20
158.382106959854
 10
550.3259634938639
 20
158.419398009812
 10
550.3447961774269
 20
158.458478391205
 10
550.363527533094
 20
158.499323070084
 10
550.382049080411
 20
158.541903436219
 10
550.400695797483
 20
158.587211310898
 10
550.420030352155
 20
158.637027680909
 10
550.4397523370179
 20
158.691368043457
 10
550.4595458474549
 20
158.750214517151
 10
550.47909140257
 20
158.813546836411
 10
550.498075481931
 20
158.881344735657
 10
550.516178604642
 20
158.953587949311
 10
550.533084866086
 20
159.030259788071
  0
LWPOLYLINE
  5
712
330
1F
100
AcDbEntity
  8
Sichtbare_Kanten_TC_020513_DIN_
  6
Continuous
 62
     7
100
AcDbPolyline
 90
       25
 70
     0
 43
0.0
 10
550.533084866086
 20
159.030259788071
 10
550.560715195218
 20
159.16375035051
 10
550.588294264356
 20
159.294174850022
 10
550.6158387628
 20
159.421293675934
 10
550.643367764036
 20
159.544867217575
 10
550.670899149457
 20
159.664654672181
 10
550.698449608365
 20
159.780418813263
 10
550.7260382142459
 20
159.891917645966
 10
550.753679272214
 20
159.998898446594
 10
550.781296488324
 20
160.100779473816
 10
550.808864828626
 20
160.197229325806
 10
550.836404558698
 20
160.288082301651
 10
550.863933559934
 20
160.37317270044
 10
550.891467329541
 20
160.452334821259
 10
550.919024941007
 20
160.525405347382
 10
550.946625467816
 20
160.592218577896
 10
550.974273678342
 20
160.652584970032
 10
551.001908775845
 20
160.706198155915
 10
551.029530760327
 20
160.752931773697
 10
551.057159897366
 20
160.79269522432
 10
551.084810492078
 20
160.825397908722
 10
551.112450357953
 20
160.850908696686
 10
551.140073534528
 20
160.869169175659
 10
551.167700287381
 20
160.880147159134
 10
551.195346113721
 20
160.883812844788
  0
LWPOLYLINE
  5
713
330
1F
100
AcDbEntity
  8
Sichtbare_Kanten_TC_020513_DIN_
  6
Continuous
 62
     7
100
AcDbPolyline
 90
       25
 70
     0
 43
0.0
 10
550.533084866086
 20
158.557037055527
 10
550.527242418805
 20
158.543145597016
 10
550.520305630246
 20
158.527498185669
 10
550.512168404141
 20
158.510190188919
 10
550.502724644223
 20
158.491321742569
 10
550.491869446317
 20
158.470990598236
 10
550.4794967141539
 20
158.449294507538
 10
550.465500351468
 20
158.426333606278
 10
550.449776646176
 20
158.40220445398
 10
550.432218309918
 20
158.377004802262
 10
550.412719246427
 20
158.35083597902
 10
550.391175743619
 20
158.323793351685
 10
550.367960926572
 20
158.296546876465
 10
550.344390865842
 20
158.270659387146
 10
550.3207254376799
 20
158.246222674881
 10
550.297157761136
 20
158.223246276413
 10
550.273883339444
 20
158.201739728485
 10
550.251097675839
 20
158.181714952027
 10
550.228995081464
 20
158.163179099594
 10
550.207772251645
 20
158.146142900025
 10
550.187622305432
 20
158.130617082154
 10
550.16874074606
 20
158.116611182724
 10
550.151323076764
 20
158.104135930573
 10
550.135563608686
 20
158.093199670349
 10
550.121656652967
 20
158.08381313089
  0
LWPOLYLINE
  5
714
330
1F
100
AcDbEntity
  8
Sichtbare_Kanten_TC_020513_DIN_
  6
Continuous
 62
     7
100
AcDbPolyline
 90
       25
 70
     0
 43
0.0
 10
551.195346113721
 20
159.483812987839
 10
551.167689558545
 20
159.481978356873
 10
551.140087839642
 20
159.476494729554
 10
551.112524267712
 20
159.467389524018
 10
551.084979769269
 20
159.45469373468
 10
551.057437655011
 20
159.438435971771
 10
551.029878851453
 20
159.418643653427
 10
551.0022854772
 20
159.395347774063
 10
550.9746396508609
 20
159.368576943909
 10
550.946973558942
 20
159.338418185745
 10
550.919364687482
 20
159.305039584671
 10
550.8917951550869
 20
159.268528163468
 10
550.864249464551
 20
159.228963792359
 10
550.836707350293
 20
159.186429917847
 10
550.809152123013
 20
159.141008794342
 10
550.781565901319
 20
159.092781484162
 10
550.753930803815
 20
159.041831433808
 10
550.7262587514309
 20
158.988301694428
 10
550.698635574857
 20
158.932498633896
 10
550.671050545255
 20
158.874559342896
 10
550.643486973325
 20
158.814604222809
 10
550.615926977674
 20
158.752754867112
 10
550.588351484815
 20
158.689129293
 10
550.5607438054479
 20
158.623850286042
 10
550.533084866086
 20
158.557037055527
  0
LWPOLYLINE
  5
715
330
1F
100
AcDbEntity
  8
Sichtbare_Kanten_TC_020513_DIN_
  6
Continuous
 62
     7
100
AcDbPolyline
 90
       25
 70
     0
 43
0.0
 10
549.929776188413
 20
146.923667728935
 10
549.9199485745829
 20
146.970032095944
 10
549.910124537031
 20
147.016753196751
 10
549.900302883665
 20
147.063819408451
 10
549.890484806577
 20
147.111218512093
 10
549.880667921583
 20
147.15893888477
 10
549.870851036588
 20
147.206968605553
 10
549.8610353436869
 20
147.255295157467
 10
549.851218458692
 20
147.30390721563
 10
549.841400381605
 20
147.352792561089
 10
549.8315787282389
 20
147.401938974892
 10
549.821754690687
 20
147.45133453611
 10
549.811925884763
 20
147.500967919861
 10
549.802098270933
 20
147.550802171265
 10
549.792274233381
 20
147.600799143349
 10
549.782452580015
 20
147.650947511231
 10
549.772634502927
 20
147.701234161888
 10
549.762817617933
 20
147.7516459823
 10
549.753000732938
 20
147.802171647583
 10
549.743185040037
 20
147.852798044716
 10
549.7333681550421
 20
147.903512060677
 10
549.723550077955
 20
147.954301774536
 10
549.713728424589
 20
148.005154669319
 10
549.703904387037
 20
148.056057632004
 10
549.694076773206
 20
148.106998741661
  0
LWPOLYLINE
  5
716
330
1F
100
AcDbEntity
  8
Sichtbare_Kanten_TC_020513_DIN_
  6
Continuous
 62
     7
100
AcDbPolyline
 90
       25
 70
     0
 43
0.0
 10
549.694076773206
 20
148.106998741661
 10
549.703904387036
 20
148.081528484856
 10
549.713728424588
 20
148.05607670549
 10
549.723550077954
 20
148.030650556122
 10
549.7333681550421
 20
148.005255401169
 10
549.743185040036
 20
147.979898393189
 10
549.753000732938
 20
147.954585492645
 10
549.762817617932
 20
147.929322660004
 10
549.772634502927
 20
147.904116451775
 10
549.782452580014
 20
147.878973424469
 10
549.79227423338
 20
147.853898942505
 10
549.802098270932
 20
147.828900754486
 10
549.811925884763
 20
147.803983628784
 10
549.821754690686
 20
147.779166638886
 10
549.831578728238
 20
147.754468858277
 10
549.841400381604
 20
147.729895651375
 10
549.851218458692
 20
147.705452978646
 10
549.861035343686
 20
147.681146800553
 10
549.870851036588
 20
147.656983673607
 10
549.880667921582
 20
147.632968962227
 10
549.890484806577
 20
147.609108626877
 10
549.900302883664
 20
147.585409224068
 10
549.91012453703
 20
147.561876118218
 10
549.919948574582
 20
147.538515269791
 10
549.929776188413
 20
147.515333235298
  0
LWPOLYLINE
  5
717
330
1F
100
AcDbEntity
  8
Sichtbare_Kanten_TC_020513_DIN_
  6
Continuous
 62
     7
100
AcDbPolyline
 90
       25
 70
     0
 43
0.0
 10
541.85957669882
 20
159.888170897995
 10
541.85615539221
 20
159.897099673783
 10
541.852877136747
 20
159.906027257477
 10
541.8497467008029
 20
159.914954841171
 10
541.846759316007
 20
159.923882424866
 10
541.843917366545
 20
159.932808816468
 10
541.8412184682289
 20
159.941736400162
 10
541.838667389433
 20
159.950662791764
 10
541.836259361784
 20
159.959590375458
 10
541.833996769468
 20
159.96851676706
 10
541.831879612486
 20
159.977444350754
 10
541.829907890837
 20
159.986373126541
 10
541.828083988706
 20
159.995301902329
 10
541.826403137724
 20
160.004229486023
 10
541.8248677220739
 20
160.013158261811
 10
541.823480125944
 20
160.022085845505
 10
541.822237965147
 20
160.0310134292
 10
541.821141239683
 20
160.039939820801
 10
541.820192333738
 20
160.048867404495
 10
541.819386478941
 20
160.057793796097
 10
541.818728443662
 20
160.066720187699
 10
541.818218227903
 20
160.075647771393
 10
541.817851063291
 20
160.084575355088
 10
541.817631718199
 20
160.093504130875
 10
541.817557808439
 20
160.102431714569
  0
LWPOLYLINE
  5
718
330
1F
100
AcDbEntity
  8
Sichtbare_Kanten_TC_020513_DIN_
  6
Continuous
 62
     7
100
AcDbPolyline
 90
       25
 70
     0
 43
0.0
 10
543.217558857481
 20
160.102431714569
 10
543.217594620268
 20
160.093504130875
 10
543.217704292814
 20
160.084575355088
 10
543.21788787512
 20
160.075647771393
 10
543.218142983
 20
160.066720187699
 10
543.218472000639
 20
160.057793796097
 10
543.218874928037
 20
160.048867404495
 10
543.2193493810099
 20
160.039939820801
 10
543.219897743742
 20
160.0310134292
 10
543.220520016233
 20
160.022085845505
 10
543.221213814299
 20
160.013158261811
 10
543.221981522123
 20
160.004229486023
 10
543.222820755522
 20
159.995301902329
 10
543.22373389868
 20
159.986373126541
 10
543.2247185674111
 20
159.977444350754
 10
543.225777145903
 20
159.96851676706
 10
543.226909634153
 20
159.959590375458
 10
543.2281136479779
 20
159.950662791764
 10
543.229389187376
 20
159.941736400162
 10
543.230738636534
 20
159.932808816468
 10
543.232159611265
 20
159.923882424866
 10
543.23365211157
 20
159.914954841171
 10
543.2352185216349
 20
159.906027257477
 10
543.236856457273
 20
159.897099673783
 10
543.238568302671
 20
159.888170897995
  0
LWPOLYLINE
  5
719
330
1F
100
AcDbEntity
  8
Sichtbare_Kanten_TC_020513_DIN_
  6
Continuous
 62
     7
100
AcDbPolyline
 90
       25
 70
     0
 43
0.0
 10
544.6175599065219
 20
158.991385638748
 10
544.602088924924
 20
159.004660785233
 10
544.586617943326
 20
159.017935931717
 10
544.571149345914
 20
159.031209886109
 10
544.5556831326879
 20
159.0444838405
 10
544.540219303647
 20
159.057756602799
 10
544.524757858792
 20
159.07103055719
 10
544.509298798123
 20
159.084304511582
 10
544.49384212164
 20
159.09757727388
 10
544.478390213529
 20
159.110851228272
 10
544.462940689603
 20
159.124125182663
 10
544.447495934049
 20
159.137400329148
 10
544.432058331052
 20
159.150674283539
 10
544.4166231122409
 20
159.163949430024
 10
544.401195045987
 20
159.177224576508
 10
544.385776516477
 20
159.190498530899
 10
544.370362755338
 20
159.203772485291
 10
544.354958530942
 20
159.217045247589
 10
544.339561459104
 20
159.230319201981
 10
544.324173924008
 20
159.243593156372
 10
544.308793541471
 20
159.256865918671
 10
544.293422695676
 20
159.270139873062
 10
544.278061386624
 20
159.283413827454
 10
544.262711998502
 20
159.296688973938
 10
544.247369762937
 20
159.309964120423
  0
LWPOLYLINE
  5
71A
330
1F
100
AcDbEntity
  8
Sichtbare_Kanten_TC_020513_DIN_
  6
Continuous
 62
     7
100
AcDbPolyline
 90
       25
 70
     0
 43
0.0
 10
544.432463642637
 20
159.309964120423
 10
544.4401359525119
 20
159.296688973938
 10
544.447810646574
 20
159.283413827454
 10
544.455490109006
 20
159.270139873062
 10
544.463176723997
 20
159.256865918671
 10
544.470865723173
 20
159.243593156372
 10
544.4785594907199
 20
159.230319201981
 10
544.486258026639
 20
159.217045247589
 10
544.49396133093
 20
159.203772485291
 10
544.501667019407
 20
159.190498530899
 10
544.509377476255
 20
159.177224576508
 10
544.517090317289
 20
159.163949430024
 10
544.524807926694
 20
159.150674283539
 10
544.532527920286
 20
159.137400329148
 10
544.540250298063
 20
159.124125182663
 10
544.547975060026
 20
159.110851228272
 10
544.5556998219889
 20
159.09757727388
 10
544.5634293523229
 20
159.084304511582
 10
544.571158882658
 20
159.07103055719
 10
544.578888412992
 20
159.057756602799
 10
544.5866203275119
 20
159.0444838405
 10
544.594354626218
 20
159.031209886109
 10
544.602088924924
 20
159.017935931717
 10
544.60982322363
 20
159.004660785233
 10
544.6175599065219
 20
158.991385638748
  0
LWPOLYLINE
  5
71B
330
1F
100
AcDbEntity
  8
Sichtbare_Kanten_TC_020513_DIN_
  6
Continuous
 62
     7
100
AcDbPolyline
 90
       25
 70
     0
 43
0.0
 10
544.247369762937
 20
159.309964120423
 10
544.233956333676
 20
159.32132595781
 10
544.217321869413
 20
159.334938466584
 10
544.19749736456
 20
159.350527465378
 10
544.174511429349
 20
159.367824733292
 10
544.14839744238
 20
159.386558473145
 10
544.119181629697
 20
159.406458079849
 10
544.086894985715
 20
159.427254140412
 10
544.05156850485
 20
159.448673665558
 10
544.01323079733
 20
159.470447242295
 10
543.971912857572
 20
159.492304265534
 10
543.9276432958039
 20
159.513974130188
 10
543.880453106443
 20
159.535186231171
 10
543.830373283902
 20
159.555668771301
 10
543.777577873746
 20
159.575110614334
 10
543.723967072049
 20
159.592797696625
 10
543.670186993161
 20
159.608561933075
 10
543.616325851956
 20
159.622416436707
 10
543.562471863309
 20
159.63437789682
 10
543.508710857907
 20
159.644460618531
 10
543.4551310506259
 20
159.652676522766
 10
543.401818272153
 20
159.659042298828
 10
543.348860737363
 20
159.663571059738
 10
543.29634666113
 20
159.666277110611
 10
543.244361874143
 20
159.667175948655
  0
LWPOLYLINE
  5
71C
330
1F
100
AcDbEntity
  8
Sichtbare_Kanten_TC_020513_DIN_
  6
Continuous
 62
     7
100
AcDbPolyline
 90
       25
 70
     0
 43
0.0
 10
543.93095969824
 20
159.667175948655
 10
543.958430286924
 20
159.666160285508
 10
543.9859938588539
 20
159.663137137925
 10
544.013593193571
 20
159.658145844971
 10
544.041171070615
 20
159.65122455362
 10
544.068670269529
 20
159.642412602936
 10
544.096026417295
 20
159.631752908264
 10
544.1229724851049
 20
159.619388520752
 10
544.149379726926
 20
159.605437457596
 10
544.175212379972
 20
159.589981973206
 10
544.200432297269
 20
159.573104321991
 10
544.225001331846
 20
159.554889142548
 10
544.2488861051
 20
159.535418689286
 10
544.2719578709999
 20
159.514857471024
 10
544.2936706509989
 20
159.493803918396
 10
544.313948151151
 20
159.472552478348
 10
544.332792755643
 20
159.451329648529
 10
544.350211617033
 20
159.430364310776
 10
544.366202351133
 20
159.409885346924
 10
544.380774494688
 20
159.390119254624
 10
544.393930431882
 20
159.371293723618
 10
544.405674931089
 20
159.353637635743
 10
544.416007992307
 20
159.337378680741
 10
544.424936768094
 20
159.322744548355
 10
544.432463642637
 20
159.309964120423
  0
LWPOLYLINE
  5
71D
330
1F
100
AcDbEntity
  8
Sichtbare_Kanten_TC_020513_DIN_
  6
Continuous
 62
     7
100
AcDbPolyline
 90
       25
 70
     0
 43
0.0
 10
542.248499390165
 20
159.667175948655
 10
542.2190809216889
 20
159.667714774643
 10
542.1906590428749
 20
159.669334828888
 10
542.163243290464
 20
159.672040879761
 10
542.1368432012
 20
159.675837695633
 10
542.111468311826
 20
159.680727660691
 10
542.087130543272
 20
159.686716735398
 10
542.063837048093
 20
159.693808496033
 10
542.041599747221
 20
159.702007710968
 10
542.020430561582
 20
159.711317956482
 10
542.000346180479
 20
159.721739232575
 10
541.9817590680519
 20
159.733021199738
 10
541.964809891264
 20
159.744934976136
 10
541.949412819425
 20
159.757344663178
 10
541.935491558591
 20
159.77011674646
 10
541.922965046445
 20
159.783116519486
 10
541.911749836485
 20
159.796209275757
 10
541.901767250578
 20
159.80926150087
 10
541.892933842222
 20
159.822137296234
 10
541.885170933286
 20
159.834703147446
 10
541.878397461454
 20
159.846823155915
 10
541.872532364408
 20
159.858364999329
 10
541.8674945798319
 20
159.869192779099
 10
541.863203045408
 20
159.87917298082
 10
541.85957669882
 20
159.888170897995
  0
LWPOLYLINE
  5
71E
330
1F
100
AcDbEntity
  8
Sichtbare_Kanten_TC_020513_DIN_
  6
Continuous
 62
     7
100
AcDbPolyline
 90
       25
 70
     0
 43
0.0
 10
543.238568302671
 20
159.888170897995
 10
543.240394588987
 20
159.879087150132
 10
543.242530819456
 20
159.869108140503
 10
543.245019909422
 20
159.8583530784
 10
543.247897621672
 20
159.846945941483
 10
543.251211639921
 20
159.835007131134
 10
543.254997726957
 20
159.82265824083
 10
543.2592964139379
 20
159.810022056137
 10
543.264150616209
 20
159.79721897844
 10
543.2696008649269
 20
159.784371793305
 10
543.2756876912509
 20
159.771602094208
 10
543.2824492421549
 20
159.759031474625
 10
543.2899308171669
 20
159.746781528031
 10
543.298168179075
 20
159.734973847901
 10
543.307204243223
 20
159.723731219803
 10
543.317010399381
 20
159.713246762787
 10
543.327441212217
 20
159.703769624268
 10
543.338494297544
 20
159.695330798661
 10
543.350179192106
 20
159.687950551545
 10
543.362507816831
 20
159.681650340592
 10
543.375461098234
 20
159.676459968125
 10
543.388998505155
 20
159.672409236466
 10
543.403110500852
 20
159.669506490265
 10
543.4177875485819
 20
159.667760074173
 10
543.433029648344
 20
159.667175948655
  0
SOLID
  5
71F
330
1F
100
AcDbEntity
  8
Symbole_TC_020513_DIN_
 62
     7
100
AcDbTrace
 10
587.393857289538
 20
90.80537674823002
 30
0.0
 11
586.9363736220255
 21
90.33207114189915
 31
0.0
 12
585.36755895285
 22
92.3061906695712
 32
0.0
 13
585.36755895285
 23
92.3061906695712
 33
0.0
  0
LEADER
  5
720
330
1F
100
AcDbEntity
  8
Symbole_TC_020513_DIN_
  6
Continuous
 62
     7
100
AcDbLeader
  3
Standard
 71
     0
 76
     3
 10
585.36755895285
 20
92.3061906695712
 30
0.0
 10
599.010441544094
 20
79.11937039995789
 30
0.0
 10
600.710441544094
 20
79.11937039995789
 30
0.0
  0
DIMENSION
  5
72C
330
1F
100
AcDbEntity
  8
Bemaßungen_TC_020513_DIN_
100
AcDbDimension
  2
*D3
 10
502.5301075000331
 20
120.6281906695708
 30
0.0
 11
498.110735058014
 21
107.99624523983
 31
0.0
 70
    32
  1
PG16
 71
     5
 42
-1.0
 53
90.0
  3
ME10_DIM_10
100
AcDbAlignedDimension
 13
486.530107500033
 23
97.14419066957119
 33
0.0
 14
486.530107500033
 24
120.628190669571
 34
0.0
 50
90.0
100
AcDbRotatedDimension
  0
DIMENSION
  5
737
330
1F
100
AcDbEntity
  8
Bemaßungen_TC_020513_DIN_
100
AcDbDimension
  2
*D4
 10
380.3461575283165
 20
177.3061906695712
 30
0.0
 11
440.3797868997598
 21
181.680201583623
 31
0.0
 70
    32
  1
119
 71
     5
 42
-1.0
 53
0.00013888888889
  3
ME10_DIM_11
100
AcDbAlignedDimension
 13
499.214057471749
 23
131.306190669571
 33
0.0
 14
380.3461575283165
 24
131.306190669571
 34
0.0
100
AcDbRotatedDimension
  0
DIMENSION
  5
742
330
1F
100
AcDbEntity
  8
Bemaßungen_TC_020513_DIN_
100
AcDbDimension
  2
*D5
 10
614.5079298983997
 20
92.30619066957101
 30
0.0
 11
610.14824367739
 21
130.17056311159
 31
0.0
 70
    32
  1
75
 71
     5
 42
-1.0
 53
90.0
  3
ME10_DIM_12
100
AcDbAlignedDimension
 13
589.417558952855
 23
167.306190669571
 33
0.0
 14
591.617558952846
 24
92.3061906695712
 34
0.0
 50
90.0
100
AcDbRotatedDimension
  0
DIMENSION
  5
74D
330
1F
100
AcDbEntity
  8
Bemaßungen_TC_020513_DIN_
100
AcDbDimension
  2
*D6
 10
607.617558952846
 20
96.30619066957122
 30
0.0
 11
603.3175589528461
 21
94.53075410749759
 31
0.0
 70
    32
  1
4
 71
     5
 42
-1.0
 53
90.0
  3
ME10_DIM_13
100
AcDbAlignedDimension
 13
591.617558952846
 23
92.3061906695712
 33
0.0
 14
591.617558952846
 24
96.3061906695712
 34
0.0
 50
90.0
100
AcDbRotatedDimension
  0
DIMENSION
  5
758
330
1F
100
AcDbEntity
  8
Bemaßungen_TC_020513_DIN_
100
AcDbDimension
  2
*D7
 10
545.6175589528478
 20
78.30619066957122
 30
0.0
 11
566.750267001962
 21
83.31287552632429
 31
0.0
 70
    32
  1
39,75
 71
     5
 42
-1.0
 53
0.00013888888889
  3
ME10_DIM_14
100
AcDbAlignedDimension
 13
585.36755895285
 23
94.3061906695712
 33
0.0
 14
545.617558952848
 24
94.3061906695712
 34
0.0
100
AcDbRotatedDimension
  0
DIMENSION
  5
763
330
1F
100
AcDbEntity
  8
Bemaßungen_TC_020513_DIN_
100
AcDbDimension
  2
*D8
 10
539.6175589528464
 20
66.30619066957124
 30
0.0
 11
565.4232282352
 21
70.68020158362309
 31
0.0
 70
    32
  1
52
 71
     5
 42
-1.0
 53
0.00013888888889
  3
ME10_DIM_15
100
AcDbAlignedDimension
 13
591.617558952846
 23
94.3061906695712
 33
0.0
 14
539.617558952846
 24
94.3061906695712
 34
0.0
100
AcDbRotatedDimension
  0
DIMENSION
  5
76E
330
1F
100
AcDbEntity
  8
Bemaßungen_TC_020513_DIN_
100
AcDbDimension
  2
*D9
 10
480.7801075000326
 20
77.48598877238345
 30
0.0
 11
440.158804635094
 21
81.85999968643529
 31
0.0
 70
    32
  1
82
 71
     5
 42
-1.0
 53
0.00013888888889
  3
ME10_DIM_16
100
AcDbAlignedDimension
 13
398.7801075000326
 23
94.3061906695712
 33
0.0
 14
480.780107500033
 24
94.3061906695712
 34
0.0
100
AcDbRotatedDimension
  0
DIMENSION
  5
779
330
1F
100
AcDbEntity
  8
Bemaßungen_TC_020513_DIN_
100
AcDbDimension
  2
*D10
 10
393.0301075000326
 20
66.30619066957122
 30
0.0
 11
440.9612739393232
 21
71.31287552632429
 31
0.0
 70
    32
  1
93,5
 71
     5
 42
-1.0
 53
0.00013888888889
  3
ME10_DIM_17
100
AcDbAlignedDimension
 13
486.530107500033
 23
94.3061906695712
 33
0.0
 14
393.0301075000326
 24
94.3061906695712
 34
0.0
100
AcDbRotatedDimension
  0
DIMENSION
  5
784
330
1F
100
AcDbEntity
  8
Bemaßungen_TC_020513_DIN_
100
AcDbDimension
  2
*D11
 10
514.8740293293415
 20
92.3061906695711
 30
0.0
 11
510.514343108332
 21
121.16936938717
 31
0.0
 70
    32
  1
57
 71
     5
 42
-1.0
 53
90.0
  3
ME10_DIM_18
100
AcDbAlignedDimension
 13
471.680107500033
 23
149.306190669571
 33
0.0
 14
486.530107500033
 24
92.3061906695712
 34
0.0
 50
90.0
100
AcDbRotatedDimension
  0
ENDSEC
  0
SECTION
  2
OBJECTS
  0
DICTIONARY
  5
C
330
0
100
AcDbDictionary
281
     1
  3
ACAD_GROUP
350
D
  3
ACAD_LAYOUT
350
1A
  3
ACAD_MATERIAL
350
3B
  3
ACAD_MLEADERSTYLE
350
787
  3
ACAD_MLINESTYLE
350
17
  3
ACAD_PLOTSETTINGS
350
19
  3
ACAD_PLOTSTYLENAME
350
E
  3
ACAD_VISUALSTYLE
350
2A
  3
AcDbVariableDictionary
350
785
  0
DICTIONARY
  5
D
102
{ACAD_REACTORS
330
C
102
}
330
C
100
AcDbDictionary
281
     1
  0
DICTIONARY
  5
1A
102
{ACAD_REACTORS
330
C
102
}
330
C
100
AcDbDictionary
281
     1
  3
Layout1
350
1E
  3
Layout2
350
26
  3
Model
350
22
  0
DICTIONARY
  5
3B
102
{ACAD_REACTORS
330
C
102
}
330
C
100
AcDbDictionary
281
     1
  3
ByBlock
350
3D
  3
ByLayer
350
3C
  3
Global
350
3E
  0
DICTIONARY
  5
787
102
{ACAD_REACTORS
330
C
102
}
330
C
100
AcDbDictionary
281
     1
  0
DICTIONARY
  5
17
102
{ACAD_REACTORS
330
C
102
}
330
C
100
AcDbDictionary
281
     1
  3
Standard
350
18
  0
DICTIONARY
  5
19
102
{ACAD_REACTORS
330
C
102
}
330
C
100
AcDbDictionary
281
     1
  0
ACDBDICTIONARYWDFLT
  5
E
102
{ACAD_REACTORS
330
C
102
}
330
C
100
AcDbDictionary
281
     1
  3
Normal
350
F
100
AcDbDictionaryWithDefault
340
F
  0
DICTIONARY
  5
2A
102
{ACAD_REACTORS
330
C
102
}
330
C
100
AcDbDictionary
281
     1
  3
2dWireframe
350
2F
  3
3D Hidden
350
31
  3
3dWireframe
350
30
  3
Basic
350
32
  3
Brighten
350
36
  3
ColorChange
350
3A
  3
Conceptual
350
34
  3
Dim
350
35
  3
Facepattern
350
39
  3
Flat
350
2B
  3
FlatWithEdges
350
2C
  3
Gouraud
350
2D
  3
GouraudWithEdges
350
2E
  3
Linepattern
350
38
  3
Realistic
350
33
  3
Thicken
350
37
  0
DICTIONARY
  5
785
102
{ACAD_REACTORS
330
C
102
}
330
C
100
AcDbDictionary
281
     1
  3
DIMASSOC
350
788
  3
HIDETEXT
350
789
  0
LAYOUT
  5
1E
102
{ACAD_REACTORS
330
1A
102
}
330
1A
100
AcDbPlotSettings
  1

  2
none_device
  4

  6

 40
0.0
 41
0.0
 42
0.0
 43
0.0
 44
0.0
 45
0.0
 46
0.0
 47
0.0
 48
0.0
 49
0.0
140
0.0
141
0.0
142
1.0
143
1.0
 70
   688
 72
     0
 73
     0
 74
     5
  7

 75
    16
147
1.0
148
0.0
149
0.0
100
AcDbLayout
  1
Layout1
 70
     1
 71
     1
 10
0.0
 20
0.0
 11
12.0
 21
9.0
 12
0.0
 22
0.0
 32
0.0
 14
1.00000000000000E+20
 24
1.00000000000000E+20
 34
1.00000000000000E+20
 15
-1.00000000000000E+20
 25
-1.00000000000000E+20
 35
-1.00000000000000E+20
146
0.0
 13
0.0
 23
0.0
 33
0.0
 16
1.0
 26
0.0
 36
0.0
 17
0.0
 27
1.0
 37
0.0
 76
     0
330
1B
  0
LAYOUT
  5
26
102
{ACAD_REACTORS
330
1A
102
}
330
1A
100
AcDbPlotSettings
  1

  2
none_device
  4

  6

 40
0.0
 41
0.0
 42
0.0
 43
0.0
 44
0.0
 45
0.0
 46
0.0
 47
0.0
 48
0.0
 49
0.0
140
0.0
141
0.0
142
1.0
143
1.0
 70
   688
 72
     0
 73
     0
 74
     5
  7

 75
    16
147
1.0
148
0.0
149
0.0
100
AcDbLayout
  1
Layout2
 70
     1
 71
     2
 10
0.0
 20
0.0
 11
0.0
 21
0.0
 12
0.0
 22
0.0
 32
0.0
 14
0.0
 24
0.0
 34
0.0
 15
0.0
 25
0.0
 35
0.0
146
0.0
 13
0.0
 23
0.0
 33
0.0
 16
1.0
 26
0.0
 36
0.0
 17
0.0
 27
1.0
 37
0.0
 76
     0
330
23
  0
LAYOUT
  5
22
102
{ACAD_REACTORS
330
1A
102
}
330
1A
100
AcDbPlotSettings
  1

  2
none_device
  4

  6

 40
0.0
 41
0.0
 42
0.0
 43
0.0
 44
0.0
 45
0.0
 46
0.0
 47
0.0
 48
0.0
 49
0.0
140
0.0
141
0.0
142
1.0
143
1.0
 70
  1712
 72
     0
 73
     0
 74
     0
  7

 75
     0
147
1.0
148
0.0
149
0.0
100
AcDbLayout
  1
Model
 70
     1
 71
     0
 10
0.0
 20
0.0
 11
12.0
 21
9.0
 12
0.0
 22
0.0
 32
0.0
 14
347.8654851797119
 24
11.11481254807463
 34
0.0
 15
644.865485179712
 25
221.1148125480747
 35
0.0
146
0.0
 13
0.0
 23
0.0
 33
0.0
 16
1.0
 26
0.0
 36
0.0
 17
0.0
 27
1.0
 37
0.0
 76
     0
330
1F
331
29
  0
MATERIAL
  5
3D
102
{ACAD_REACTORS
330
3B
102
}
102
{ACAD_XDICTIONARY
360
7AC
102
}
330
3B
100
AcDbMaterial
  1
ByBlock
  0
MATERIAL
  5
3C
102
{ACAD_REACTORS
330
3B
102
}
102
{ACAD_XDICTIONARY
360
7AA
102
}
330
3B
100
AcDbMaterial
  1
ByLayer
  0
MATERIAL
  5
3E
102
{ACAD_REACTORS
330
3B
102
}
102
{ACAD_XDICTIONARY
360
7AE
102
}
330
3B
100
AcDbMaterial
  1
Global
  0
MLINESTYLE
  5
18
102
{ACAD_REACTORS
330
17
102
}
330
17
100
AcDbMlineStyle
  2
Standard
 70
     0
  3

 62
   256
 51
90.0
 52
90.0
 71
     2
 49
0.5
 62
   256
  6
BYLAYER
 49
-0.5
 62
   256
  6
BYLAYER
  0
ACDBPLACEHOLDER
  5
F
102
{ACAD_REACTORS
330
E
102
}
330
E
  0
VISUALSTYLE
  5
2F
102
{ACAD_REACTORS
330
2A
102
}
102
{ACAD_XDICTIONARY
360
792
102
}
330
2A
100
AcDbVisualStyle
  2
2dWireframe
 70
     4
 71
     0
 72
     2
 73
     0
 90
        0
 40
-0.6
 41
-30.0
 62
     5
 63
     7
 74
     1
 91
        4
 64
     7
 65
   257
 75
     1
175
     1
 42
1.0
 92
        0
 66
   257
 43
1.0
 76
     1
 77
     6
 78
     2
 67
     7
 79
     5
170
     0
171
     0
290
     0
174
     0
 93
        1
 44
0.0
173
     0
291
     0
 45
0.0
1001
ACAD
1000
AcDbSavedByObjectVersion
1070
     0
  0
VISUALSTYLE
  5
31
102
{ACAD_REACTORS
330
2A
102
}
102
{ACAD_XDICTIONARY
360
796
102
}
330
2A
100
AcDbVisualStyle
  2
3D Hidden
 70
     6
 71
     1
 72
     2
 73
     2
 90
        0
 40
-0.6
 41
-30.0
 62
     5
 63
     7
 74
     2
 91
        2
 64
     7
 65
   257
 75
     2
175
     1
 42
40.0
 92
        0
 66
   257
 43
1.0
 76
     1
 77
     6
 78
     2
 67
     7
 79
     3
170
     0
171
     0
290
     0
174
     0
 93
        1
 44
0.0
173
     0
291
     0
 45
0.0
1001
ACAD
1000
AcDbSavedByObjectVersion
1070
     0
  0
VISUALSTYLE
  5
30
102
{ACAD_REACTORS
330
2A
102
}
102
{ACAD_XDICTIONARY
360
794
102
}
330
2A
100
AcDbVisualStyle
  2
3dWireframe
 70
     5
 71
     0
 72
     2
 73
     0
 90
        0
 40
-0.6
 41
-30.0
 62
     5
 63
     7
 74
     1
 91
        4
 64
     7
 65
   257
 75
     1
175
     1
 42
1.0
 92
        0
 66
   257
 43
1.0
 76
     1
 77
     6
 78
     2
 67
     7
 79
     5
170
     0
171
     0
290
     0
174
     0
 93
        1
 44
0.0
173
     0
291
     0
 45
0.0
1001
ACAD
1000
AcDbSavedByObjectVersion
1070
     0
  0
VISUALSTYLE
  5
32
102
{ACAD_REACTORS
330
2A
102
}
102
{ACAD_XDICTIONARY
360
798
102
}
330
2A
100
AcDbVisualStyle
  2
Basic
 70
     7
 71
     1
 72
     0
 73
     1
 90
        0
 40
-0.6
 41
-30.0
 62
     5
 63
     7
 74
     0
 91
        4
 64
     7
 65
   257
 75
     1
175
     1
 42
1.0
 92
        8
 66
     7
 43
1.0
 76
     1
 77
     6
 78
     2
 67
     7
 79
     5
170
     0
171
     0
290
     0
174
     0
 93
        1
 44
0.0
173
     0
291
     1
 45
0.0
1001
ACAD
1000
AcDbSavedByObjectVersion
1070
     0
  0
VISUALSTYLE
  5
36
102
{ACAD_REACTORS
330
2A
102
}
102
{ACAD_XDICTIONARY
360
7A0
102
}
330
2A
100
AcDbVisualStyle
  2
Brighten
 70
    12
 71
     2
 72
     2
 73
     0
 90
        0
 40
-0.6
 41
-30.0
 62
     5
 63
     7
 74
     1
 91
        4
 64
     7
 65
   257
 75
     1
175
     1
 42
1.0
 92
        8
 66
     7
 43
1.0
 76
     1
 77
     6
 78
     2
 67
     7
 79
     5
170
     0
171
     0
290
     0
174
     0
 93
        1
 44
50.0
173
     0
291
     1
 45
0.0
1001
ACAD
1000
AcDbSavedByObjectVersion
1070
     0
  0
VISUALSTYLE
  5
3A
102
{ACAD_REACTORS
330
2A
102
}
102
{ACAD_XDICTIONARY
360
7A8
102
}
330
2A
100
AcDbVisualStyle
  2
ColorChange
 70
    16
 71
     2
 72
     2
 73
     3
 90
        0
 40
-0.6
 41
-30.0
 62
     5
 63
     8
 74
     1
 91
        4
 64
     7
 65
   257
 75
     1
175
     1
 42
1.0
 92
        8
 66
     8
 43
1.0
 76
     1
 77
     6
 78
     2
 67
     7
 79
     5
170
     0
171
     0
290
     0
174
     0
 93
        1
 44
0.0
173
     0
291
     1
 45
0.0
1001
ACAD
1000
AcDbSavedByObjectVersion
1070
     0
  0
VISUALSTYLE
  5
34
102
{ACAD_REACTORS
330
2A
102
}
102
{ACAD_XDICTIONARY
360
79C
102
}
330
2A
100
AcDbVisualStyle
  2
Conceptual
 70
     9
 71
     3
 72
     2
 73
     0
 90
        0
 40
-0.6
 41
-30.0
 62
     5
 63
     7
 74
     2
 91
        2
 64
     7
 65
   257
 75
     1
175
     1
 42
40.0
 92
        8
 66
     7
 43
1.0
 76
     1
 77
     6
 78
     2
 67
     7
 79
     3
170
     0
171
     0
290
     0
174
     0
 93
        1
 44
0.0
173
     0
291
     0
 45
0.0
1001
ACAD
1000
AcDbSavedByObjectVersion
1070
     0
  0
VISUALSTYLE
  5
35
102
{ACAD_REACTORS
330
2A
102
}
102
{ACAD_XDICTIONARY
360
79E
102
}
330
2A
100
AcDbVisualStyle
  2
Dim
 70
    11
 71
     2
 72
     2
 73
     0
 90
        0
 40
-0.6
 41
-30.0
 62
     5
 63
     7
 74
     1
 91
        4
 64
     7
 65
   257
 75
     1
175
     1
 42
1.0
 92
        8
 66
     7
 43
1.0
 76
     1
 77
     6
 78
     2
 67
     7
 79
     5
170
     0
171
     0
290
     0
174
     0
 93
        1
 44
-50.0
173
     0
291
     1
 45
0.0
1001
ACAD
1000
AcDbSavedByObjectVersion
1070
     0
  0
VISUALSTYLE
  5
39
102
{ACAD_REACTORS
330
2A
102
}
102
{ACAD_XDICTIONARY
360
7A6
102
}
330
2A
100
AcDbVisualStyle
  2
Facepattern
 70
    15
 71
     2
 72
     2
 73
     0
 90
        0
 40
-0.6
 41
-30.0
 62
     5
 63
     7
 74
     1
 91
        4
 64
     7
 65
   257
 75
     1
175
     1
 42
1.0
 92
        8
 66
     7
 43
1.0
 76
     1
 77
     6
 78
     2
 67
     7
 79
     5
170
     0
171
     0
290
     0
174
     0
 93
        1
 44
0.0
173
     0
291
     1
 45
0.0
1001
ACAD
1000
AcDbSavedByObjectVersion
1070
     0
  0
VISUALSTYLE
  5
2B
102
{ACAD_REACTORS
330
2A
102
}
102
{ACAD_XDICTIONARY
360
78A
102
}
330
2A
100
AcDbVisualStyle
  2
Flat
 70
     0
 71
     2
 72
     1
 73
     1
 90
        2
 40
-0.6
 41
30.0
 62
     5
 63
     7
 74
     0
 91
        4
 64
     7
 65
   257
 75
     1
175
     1
 42
1.0
 92
        8
 66
     7
 43
1.0
 76
     1
 77
     6
 78
     2
 67
     7
 79
     5
170
     0
171
     0
290
     0
174
     0
 93
       13
 44
0.0
173
     0
291
     1
 45
0.0
1001
ACAD
1000
AcDbSavedByObjectVersion
1070
     0
  0
VISUALSTYLE
  5
2C
102
{ACAD_REACTORS
330
2A
102
}
102
{ACAD_XDICTIONARY
360
78C
102
}
330
2A
100
AcDbVisualStyle
  2
FlatWithEdges
 70
     1
 71
     2
 72
     1
 73
     1
 90
        2
 40
-0.6
 41
30.0
 62
     5
 63
     7
 74
     1
 91
        4
 64
     7
 65
   257
 75
     1
175
     1
 42
1.0
 92
        0
 66
   257
 43
1.0
 76
     1
 77
     6
 78
     2
 67
     7
 79
     5
170
     0
171
     0
290
     0
174
     0
 93
       13
 44
0.0
173
     0
291
     1
 45
0.0
1001
ACAD
1000
AcDbSavedByObjectVersion
1070
     0
  0
VISUALSTYLE
  5
2D
102
{ACAD_REACTORS
330
2A
102
}
102
{ACAD_XDICTIONARY
360
78E
102
}
330
2A
100
AcDbVisualStyle
  2
Gouraud
 70
     2
 71
     2
 72
     2
 73
     1
 90
        2
 40
-0.6
 41
30.0
 62
     5
 63
     7
 74
     0
 91
        4
 64
     7
 65
   257
 75
     1
175
     1
 42
1.0
 92
        0
 66
     7
 43
1.0
 76
     1
 77
     6
 78
     2
 67
     7
 79
     5
170
     0
171
     0
290
     0
174
     0
 93
       13
 44
0.0
173
     0
291
     1
 45
0.0
1001
ACAD
1000
AcDbSavedByObjectVersion
1070
     0
  0
VISUALSTYLE
  5
2E
102
{ACAD_REACTORS
330
2A
102
}
102
{ACAD_XDICTIONARY
360
790
102
}
330
2A
100
AcDbVisualStyle
  2
GouraudWithEdges
 70
     3
 71
     2
 72
     2
 73
     1
 90
        2
 40
-0.6
 41
30.0
 62
     5
 63
     7
 74
     1
 91
        4
 64
     7
 65
   257
 75
     1
175
     1
 42
1.0
 92
        0
 66
   257
 43
1.0
 76
     1
 77
     6
 78
     2
 67
     7
 79
     5
170
     0
171
     0
290
     0
174
     0
 93
       13
 44
0.0
173
     0
291
     1
 45
0.0
1001
ACAD
1000
AcDbSavedByObjectVersion
1070
     0
  0
VISUALSTYLE
  5
38
102
{ACAD_REACTORS
330
2A
102
}
102
{ACAD_XDICTIONARY
360
7A4
102
}
330
2A
100
AcDbVisualStyle
  2
Linepattern
 70
    14
 71
     2
 72
     2
 73
     0
 90
        0
 40
-0.6
 41
-30.0
 62
     5
 63
     7
 74
     1
 91
        4
 64
     7
 65
   257
 75
     7
175
     7
 42
1.0
 92
        8
 66
     7
 43
1.0
 76
     1
 77
     6
 78
     2
 67
     7
 79
     5
170
     0
171
     0
290
     0
174
     0
 93
        1
 44
0.0
173
     0
291
     1
 45
0.0
1001
ACAD
1000
AcDbSavedByObjectVersion
1070
     0
  0
VISUALSTYLE
  5
33
102
{ACAD_REACTORS
330
2A
102
}
102
{ACAD_XDICTIONARY
360
79A
102
}
330
2A
100
AcDbVisualStyle
  2
Realistic
 70
     8
 71
     2
 72
     2
 73
     0
 90
        0
 40
-0.6
 41
-30.0
 62
     5
 63
     7
 74
     1
 91
        0
 64
     7
 65
   257
 75
     1
175
     1
 42
1.0
 92
        8
 66
     8
 43
1.0
 76
     1
 77
     6
 78
     2
 67
     7
 79
     5
170
     0
171
     0
290
     0
174
     0
 93
       13
 44
0.0
173
     0
291
     0
 45
0.0
1001
ACAD
1000
AcDbSavedByObjectVersion
1070
     0
  0
VISUALSTYLE
  5
37
102
{ACAD_REACTORS
330
2A
102
}
102
{ACAD_XDICTIONARY
360
7A2
102
}
330
2A
100
AcDbVisualStyle
  2
Thicken
 70
    13
 71
     2
 72
     2
 73
     0
 90
        0
 40
-0.6
 41
-30.0
 62
     5
 63
     7
 74
     1
 91
        4
 64
     7
 65
   257
 75
     1
175
     1
 42
1.0
 92
       12
 66
     7
 43
1.0
 76
     1
 77
     6
 78
     2
 67
     7
 79
     5
170
     0
171
     0
290
     0
174
     0
 93
        1
 44
0.0
173
     0
291
     1
 45
0.0
1001
ACAD
1000
AcDbSavedByObjectVersion
1070
     0
  0
DICTIONARYVAR
  5
788
102
{ACAD_REACTORS
330
785
102
}
330
785
100
DictionaryVariables
280
     0
  1
2
  0
DICTIONARYVAR
  5
789
102
{ACAD_REACTORS
330
785
102
}
330
785
100
DictionaryVariables
280
     0
  1
1
  0
DICTIONARY
  5
7AC
330
3D
100
AcDbDictionary
280
     1
281
     1
  3
ACAD_XREC_ROUNDTRIP
360
7AD
  0
DICTIONARY
  5
7AA
330
3C
100
AcDbDictionary
280
     1
281
     1
  3
ACAD_XREC_ROUNDTRIP
360
7AB
  0
DICTIONARY
  5
7AE
330
3E
100
AcDbDictionary
280
     1
281
     1
  3
ACAD_XREC_ROUNDTRIP
360
7AF
  0
DICTIONARY
  5
792
330
2F
100
AcDbDictionary
280
     1
281
     1
  3
ACAD_XREC_ROUNDTRIP
360
793
  0
DICTIONARY
  5
796
330
31
100
AcDbDictionary
280
     1
281
     1
  3
ACAD_XREC_ROUNDTRIP
360
797
  0
DICTIONARY
  5
794
330
30
100
AcDbDictionary
280
     1
281
     1
  3
ACAD_XREC_ROUNDTRIP
360
795
  0
DICTIONARY
  5
798
330
32
100
AcDbDictionary
280
     1
281
     1
  3
ACAD_XREC_ROUNDTRIP
360
799
  0
DICTIONARY
  5
7A0
330
36
100
AcDbDictionary
280
     1
281
     1
  3
ACAD_XREC_ROUNDTRIP
360
7A1
  0
DICTIONARY
  5
7A8
330
3A
100
AcDbDictionary
280
     1
281
     1
  3
ACAD_XREC_ROUNDTRIP
360
7A9
  0
DICTIONARY
  5
79C
330
34
100
AcDbDictionary
280
     1
281
     1
  3
ACAD_XREC_ROUNDTRIP
360
79D
  0
DICTIONARY
  5
79E
330
35
100
AcDbDictionary
280
     1
281
     1
  3
ACAD_XREC_ROUNDTRIP
360
79F
  0
DICTIONARY
  5
7A6
330
39
100
AcDbDictionary
280
     1
281
     1
  3
ACAD_XREC_ROUNDTRIP
360
7A7
  0
DICTIONARY
  5
78A
330
2B
100
AcDbDictionary
280
     1
281
     1
  3
ACAD_XREC_ROUNDTRIP
360
78B
  0
DICTIONARY
  5
78C
330
2C
100
AcDbDictionary
280
     1
281
     1
  3
ACAD_XREC_ROUNDTRIP
360
78D
  0
DICTIONARY
  5
78E
330
2D
100
AcDbDictionary
280
     1
281
     1
  3
ACAD_XREC_ROUNDTRIP
360
78F
  0
DICTIONARY
  5
790
330
2E
100
AcDbDictionary
280
     1
281
     1
  3
ACAD_XREC_ROUNDTRIP
360
791
  0
DICTIONARY
  5
7A4
330
38
100
AcDbDictionary
280
     1
281
     1
  3
ACAD_XREC_ROUNDTRIP
360
7A5
  0
DICTIONARY
  5
79A
330
33
100
AcDbDictionary
280
     1
281
     1
  3
ACAD_XREC_ROUNDTRIP
360
79B
  0
DICTIONARY
  5
7A2
330
37
100
AcDbDictionary
280
     1
281
     1
  3
ACAD_XREC_ROUNDTRIP
360
7A3
  0
XRECORD
  5
7AD
102
{ACAD_REACTORS
330
7AC
102
}
330
7AC
100
AcDbXrecord
280
     1
102
MATERIAL
148
0.0
149
0.0
149
0.0
 93
        0
 94
      127
282
     0
 72
     1
 77
     1
171
     1
175
     1
179
     1
273
     0
  0
XRECORD
  5
7AB
102
{ACAD_REACTORS
330
7AA
102
}
330
7AA
100
AcDbXrecord
280
     1
102
MATERIAL
148
0.0
149
0.0
149
0.0
 93
        0
 94
      127
282
     0
 72
     1
 77
     1
171
     1
175
     1
179
     1
273
     0
  0
XRECORD
  5
7AF
102
{ACAD_REACTORS
330
7AE
102
}
330
7AE
100
AcDbXrecord
280
     1
102
MATERIAL
148
0.0
149
0.0
149
0.0
 93
        0
 94
      127
282
     0
 72
     1
 77
     1
171
     1
175
     1
179
     1
273
     0
  0
XRECORD
  5
793
102
{ACAD_REACTORS
330
792
102
}
330
792
100
AcDbXrecord
280
     1
102
RTVSPropertyOp0
 70
     1
102
RTVSPropertyOp1
 70
     1
102
RTVSPropertyOp2
 70
     1
102
RTVSPropertyOp3
 70
     1
102
RTVSPropertyOp4
 70
     1
102
RTVSPropertyOp5
 70
     1
102
RTVSPropertyOp6
 70
     1
102
RTVSPropertyOp7
 70
     1
102
RTVSPropertyOp8
 70
     1
102
RTVSPropertyOp9
 70
     1
102
RTVSPropertyOp10
 70
     1
102
RTVSPropertyOp11
 70
     1
102
RTVSPropertyOp12
 70
     1
102
RTVSPropertyOp13
 70
     1
102
RTVSPropertyOp14
 70
     1
102
RTVSPropertyOp15
 70
     1
102
RTVSPropertyOp16
 70
     1
102
RTVSPropertyOp17
 70
     1
102
RTVSPropertyOp18
 70
     1
102
RTVSPropertyOp19
 70
     1
102
RTVSPropertyOp20
 70
     1
102
RTVSPropertyOp21
 70
     1
102
RTVSPropertyOp22
 70
     1
102
RTVSPropertyOp23
 70
     1
102
RTVSPropertyOp24
 70
     1
102
RTVSPropertyOp25
 70
     1
102
RTVSPropertyOp26
 70
     1
102
RTVSPropertyOp27
 70
     1
102
RTVSPropertyOp28
 70
     1
102
RTVSPropertyOp29
 70
     1
102
RTVSPropertyOp30
 70
     1
102
RTVSPropertyOp31
 70
     1
102
RTVSPropertyOp32
 70
     1
  0
XRECORD
  5
797
102
{ACAD_REACTORS
330
796
102
}
330
796
100
AcDbXrecord
280
     1
102
RTVSPropertyOp0
 70
     1
102
RTVSPropertyOp1
 70
     1
102
RTVSPropertyOp2
 70
     1
102
RTVSPropertyOp3
 70
     1
102
RTVSPropertyOp4
 70
     1
102
RTVSPropertyOp5
 70
     1
102
RTVSPropertyOp6
 70
     1
102
RTVSPropertyOp7
 70
     1
102
RTVSPropertyOp8
 70
     1
102
RTVSPropertyOp9
 70
     1
102
RTVSPropertyOp10
 70
     1
102
RTVSPropertyOp11
 70
     1
102
RTVSPropertyOp12
 70
     1
102
RTVSPropertyOp13
 70
     1
102
RTVSPropertyOp14
 70
     1
102
RTVSPropertyOp15
 70
     1
102
RTVSPropertyOp16
 70
     1
102
RTVSPropertyOp17
 70
     1
102
RTVSPropertyOp18
 70
     1
102
RTVSPropertyOp19
 70
     1
102
RTVSPropertyOp20
 70
     1
102
RTVSPropertyOp21
 70
     1
102
RTVSPropertyOp22
 70
     1
102
RTVSPropertyOp23
 70
     1
102
RTVSPropertyOp24
 70
     1
102
RTVSPropertyOp25
 70
     1
102
RTVSPropertyOp26
 70
     1
102
RTVSPropertyOp27
 70
     1
102
RTVSPropertyOp28
 70
     1
102
RTVSPropertyOp29
 70
     1
102
RTVSPropertyOp30
 70
     1
102
RTVSPropertyOp31
 70
     1
102
RTVSPropertyOp32
 70
     1
  0
XRECORD
  5
795
102
{ACAD_REACTORS
330
794
102
}
330
794
100
AcDbXrecord
280
     1
102
RTVSPropertyOp0
 70
     1
102
RTVSPropertyOp1
 70
     1
102
RTVSPropertyOp2
 70
     1
102
RTVSPropertyOp3
 70
     1
102
RTVSPropertyOp4
 70
     1
102
RTVSPropertyOp5
 70
     1
102
RTVSPropertyOp6
 70
     1
102
RTVSPropertyOp7
 70
     1
102
RTVSPropertyOp8
 70
     1
102
RTVSPropertyOp9
 70
     1
102
RTVSPropertyOp10
 70
     1
102
RTVSPropertyOp11
 70
     1
102
RTVSPropertyOp12
 70
     1
102
RTVSPropertyOp13
 70
     1
102
RTVSPropertyOp14
 70
     1
102
RTVSPropertyOp15
 70
     1
102
RTVSPropertyOp16
 70
     1
102
RTVSPropertyOp17
 70
     1
102
RTVSPropertyOp18
 70
     1
102
RTVSPropertyOp19
 70
     1
102
RTVSPropertyOp20
 70
     1
102
RTVSPropertyOp21
 70
     1
102
RTVSPropertyOp22
 70
     1
102
RTVSPropertyOp23
 70
     1
102
RTVSPropertyOp24
 70
     1
102
RTVSPropertyOp25
 70
     1
102
RTVSPropertyOp26
 70
     1
102
RTVSPropertyOp27
 70
     1
102
RTVSPropertyOp28
 70
     1
102
RTVSPropertyOp29
 70
     1
102
RTVSPropertyOp30
 70
     1
102
RTVSPropertyOp31
 70
     1
102
RTVSPropertyOp32
 70
     1
  0
XRECORD
  5
799
102
{ACAD_REACTORS
330
798
102
}
330
798
100
AcDbXrecord
280
     1
102
RTVSPropertyOp0
 70
     1
102
RTVSPropertyOp1
 70
     1
102
RTVSPropertyOp2
 70
     1
102
RTVSPropertyOp3
 70
     1
102
RTVSPropertyOp4
 70
     1
102
RTVSPropertyOp5
 70
     1
102
RTVSPropertyOp6
 70
     1
102
RTVSPropertyOp7
 70
     1
102
RTVSPropertyOp8
 70
     1
102
RTVSPropertyOp9
 70
     1
102
RTVSPropertyOp10
 70
     1
102
RTVSPropertyOp11
 70
     1
102
RTVSPropertyOp12
 70
     1
102
RTVSPropertyOp13
 70
     1
102
RTVSPropertyOp14
 70
     1
102
RTVSPropertyOp15
 70
     1
102
RTVSPropertyOp16
 70
     1
102
RTVSPropertyOp17
 70
     1
102
RTVSPropertyOp18
 70
     1
102
RTVSPropertyOp19
 70
     1
102
RTVSPropertyOp20
 70
     1
102
RTVSPropertyOp21
 70
     1
102
RTVSPropertyOp22
 70
     1
102
RTVSPropertyOp23
 70
     1
102
RTVSPropertyOp24
 70
     1
102
RTVSPropertyOp25
 70
     1
102
RTVSPropertyOp26
 70
     1
102
RTVSPropertyOp27
 70
     1
102
RTVSPropertyOp28
 70
     1
102
RTVSPropertyOp29
 70
     1
102
RTVSPropertyOp30
 70
     1
102
RTVSPropertyOp31
 70
     1
102
RTVSPropertyOp32
 70
     1
  0
XRECORD
  5
7A1
102
{ACAD_REACTORS
330
7A0
102
}
330
7A0
100
AcDbXrecord
280
     1
102
RTVSPropertyOp0
 70
     1
102
RTVSPropertyOp1
 70
     1
102
RTVSPropertyOp2
 70
     1
102
RTVSPropertyOp3
 70
     1
102
RTVSPropertyOp4
 70
     1
102
RTVSPropertyOp5
 70
     1
102
RTVSPropertyOp6
 70
     1
102
RTVSPropertyOp7
 70
     1
102
RTVSPropertyOp8
 70
     1
102
RTVSPropertyOp9
 70
     1
102
RTVSPropertyOp10
 70
     1
102
RTVSPropertyOp11
 70
     1
102
RTVSPropertyOp12
 70
     1
102
RTVSPropertyOp13
 70
     1
102
RTVSPropertyOp14
 70
     1
102
RTVSPropertyOp15
 70
     1
102
RTVSPropertyOp16
 70
     1
102
RTVSPropertyOp17
 70
     1
102
RTVSPropertyOp18
 70
     1
102
RTVSPropertyOp19
 70
     1
102
RTVSPropertyOp20
 70
     1
102
RTVSPropertyOp21
 70
     1
102
RTVSPropertyOp22
 70
     1
102
RTVSPropertyOp23
 70
     1
102
RTVSPropertyOp24
 70
     1
102
RTVSPropertyOp25
 70
     1
102
RTVSPropertyOp26
 70
     1
102
RTVSPropertyOp27
 70
     1
102
RTVSPropertyOp28
 70
     1
102
RTVSPropertyOp29
 70
     1
102
RTVSPropertyOp30
 70
     1
102
RTVSPropertyOp31
 70
     1
102
RTVSPropertyOp32
 70
     1
  0
XRECORD
  5
7A9
102
{ACAD_REACTORS
330
7A8
102
}
330
7A8
100
AcDbXrecord
280
     1
102
RTVSPropertyOp0
 70
     1
102
RTVSPropertyOp1
 70
     1
102
RTVSPropertyOp2
 70
     1
102
RTVSPropertyOp3
 70
     1
102
RTVSPropertyOp4
 70
     1
102
RTVSPropertyOp5
 70
     1
102
RTVSPropertyOp6
 70
     1
102
RTVSPropertyOp7
 70
     1
102
RTVSPropertyOp8
 70
     1
102
RTVSPropertyOp9
 70
     1
102
RTVSPropertyOp10
 70
     1
102
RTVSPropertyOp11
 70
     1
102
RTVSPropertyOp12
 70
     1
102
RTVSPropertyOp13
 70
     1
102
RTVSPropertyOp14
 70
     1
102
RTVSPropertyOp15
 70
     1
102
RTVSPropertyOp16
 70
     1
102
RTVSPropertyOp17
 70
     1
102
RTVSPropertyOp18
 70
     1
102
RTVSPropertyOp19
 70
     1
102
RTVSPropertyOp20
 70
     1
102
RTVSPropertyOp21
 70
     1
102
RTVSPropertyOp22
 70
     1
102
RTVSPropertyOp23
 70
     1
102
RTVSPropertyOp24
 70
     1
102
RTVSPropertyOp25
 70
     1
102
RTVSPropertyOp26
 70
     1
102
RTVSPropertyOp27
 70
     1
102
RTVSPropertyOp28
 70
     1
102
RTVSPropertyOp29
 70
     1
102
RTVSPropertyOp30
 70
     1
102
RTVSPropertyOp31
 70
     1
102
RTVSPropertyOp32
 70
     1
  0
XRECORD
  5
79D
102
{ACAD_REACTORS
330
79C
102
}
330
79C
100
AcDbXrecord
280
     1
102
RTVSPropertyOp0
 70
     1
102
RTVSPropertyOp1
 70
     1
102
RTVSPropertyOp2
 70
     1
102
RTVSPropertyOp3
 70
     1
102
RTVSPropertyOp4
 70
     1
102
RTVSPropertyOp5
 70
     1
102
RTVSPropertyOp6
 70
     1
102
RTVSPropertyOp7
 70
     1
102
RTVSPropertyOp8
 70
     1
102
RTVSPropertyOp9
 70
     1
102
RTVSPropertyOp10
 70
     1
102
RTVSPropertyOp11
 70
     1
102
RTVSPropertyOp12
 70
     1
102
RTVSPropertyOp13
 70
     1
102
RTVSPropertyOp14
 70
     1
102
RTVSPropertyOp15
 70
     1
102
RTVSPropertyOp16
 70
     1
102
RTVSPropertyOp17
 70
     1
102
RTVSPropertyOp18
 70
     1
102
RTVSPropertyOp19
 70
     1
102
RTVSPropertyOp20
 70
     1
102
RTVSPropertyOp21
 70
     1
102
RTVSPropertyOp22
 70
     1
102
RTVSPropertyOp23
 70
     1
102
RTVSPropertyOp24
 70
     1
102
RTVSPropertyOp25
 70
     1
102
RTVSPropertyOp26
 70
     1
102
RTVSPropertyOp27
 70
     1
102
RTVSPropertyOp28
 70
     1
102
RTVSPropertyOp29
 70
     1
102
RTVSPropertyOp30
 70
     1
102
RTVSPropertyOp31
 70
     1
102
RTVSPropertyOp32
 70
     1
  0
XRECORD
  5
79F
102
{ACAD_REACTORS
330
79E
102
}
330
79E
100
AcDbXrecord
280
     1
102
RTVSPropertyOp0
 70
     1
102
RTVSPropertyOp1
 70
     1
102
RTVSPropertyOp2
 70
     1
102
RTVSPropertyOp3
 70
     1
102
RTVSPropertyOp4
 70
     1
102
RTVSPropertyOp5
 70
     1
102
RTVSPropertyOp6
 70
     1
102
RTVSPropertyOp7
 70
     1
102
RTVSPropertyOp8
 70
     1
102
RTVSPropertyOp9
 70
     1
102
RTVSPropertyOp10
 70
     1
102
RTVSPropertyOp11
 70
     1
102
RTVSPropertyOp12
 70
     1
102
RTVSPropertyOp13
 70
     1
102
RTVSPropertyOp14
 70
     1
102
RTVSPropertyOp15
 70
     1
102
RTVSPropertyOp16
 70
     1
102
RTVSPropertyOp17
 70
     1
102
RTVSPropertyOp18
 70
     1
102
RTVSPropertyOp19
 70
     1
102
RTVSPropertyOp20
 70
     1
102
RTVSPropertyOp21
 70
     1
102
RTVSPropertyOp22
 70
     1
102
RTVSPropertyOp23
 70
     1
102
RTVSPropertyOp24
 70
     1
102
RTVSPropertyOp25
 70
     1
102
RTVSPropertyOp26
 70
     1
102
RTVSPropertyOp27
 70
     1
102
RTVSPropertyOp28
 70
     1
102
RTVSPropertyOp29
 70
     1
102
RTVSPropertyOp30
 70
     1
102
RTVSPropertyOp31
 70
     1
102
RTVSPropertyOp32
 70
     1
  0
XRECORD
  5
7A7
102
{ACAD_REACTORS
330
7A6
102
}
330
7A6
100
AcDbXrecord
280
     1
102
RTVSPropertyOp0
 70
     1
102
RTVSPropertyOp1
 70
     1
102
RTVSPropertyOp2
 70
     1
102
RTVSPropertyOp3
 70
     1
102
RTVSPropertyOp4
 70
     1
102
RTVSPropertyOp5
 70
     1
102
RTVSPropertyOp6
 70
     1
102
RTVSPropertyOp7
 70
     1
102
RTVSPropertyOp8
 70
     1
102
RTVSPropertyOp9
 70
     1
102
RTVSPropertyOp10
 70
     1
102
RTVSPropertyOp11
 70
     1
102
RTVSPropertyOp12
 70
     1
102
RTVSPropertyOp13
 70
     1
102
RTVSPropertyOp14
 70
     1
102
RTVSPropertyOp15
 70
     1
102
RTVSPropertyOp16
 70
     1
102
RTVSPropertyOp17
 70
     1
102
RTVSPropertyOp18
 70
     1
102
RTVSPropertyOp19
 70
     1
102
RTVSPropertyOp20
 70
     1
102
RTVSPropertyOp21
 70
     1
102
RTVSPropertyOp22
 70
     1
102
RTVSPropertyOp23
 70
     1
102
RTVSPropertyOp24
 70
     1
102
RTVSPropertyOp25
 70
     1
102
RTVSPropertyOp26
 70
     1
102
RTVSPropertyOp27
 70
     1
102
RTVSPropertyOp28
 70
     1
102
RTVSPropertyOp29
 70
     1
102
RTVSPropertyOp30
 70
     1
102
RTVSPropertyOp31
 70
     1
102
RTVSPropertyOp32
 70
     1
  0
XRECORD
  5
78B
102
{ACAD_REACTORS
330
78A
102
}
330
78A
100
AcDbXrecord
280
     1
102
RTVSPropertyOp0
 70
     1
102
RTVSPropertyOp1
 70
     1
102
RTVSPropertyOp2
 70
     1
102
RTVSPropertyOp3
 70
     1
102
RTVSPropertyOp4
 70
     1
102
RTVSPropertyOp5
 70
     1
102
RTVSPropertyOp6
 70
     1
102
RTVSPropertyOp7
 70
     1
102
RTVSPropertyOp8
 70
     1
102
RTVSPropertyOp9
 70
     1
102
RTVSPropertyOp10
 70
     1
102
RTVSPropertyOp11
 70
     1
102
RTVSPropertyOp12
 70
     1
102
RTVSPropertyOp13
 70
     1
102
RTVSPropertyOp14
 70
     1
102
RTVSPropertyOp15
 70
     1
102
RTVSPropertyOp16
 70
     1
102
RTVSPropertyOp17
 70
     1
102
RTVSPropertyOp18
 70
     1
102
RTVSPropertyOp19
 70
     1
102
RTVSPropertyOp20
 70
     1
102
RTVSPropertyOp21
 70
     1
102
RTVSPropertyOp22
 70
     1
102
RTVSPropertyOp23
 70
     1
102
RTVSPropertyOp24
 70
     1
102
RTVSPropertyOp25
 70
     1
102
RTVSPropertyOp26
 70
     1
102
RTVSPropertyOp27
 70
     1
102
RTVSPropertyOp28
 70
     1
102
RTVSPropertyOp29
 70
     1
102
RTVSPropertyOp30
 70
     1
102
RTVSPropertyOp31
 70
     1
102
RTVSPropertyOp32
 70
     1
  0
XRECORD
  5
78D
102
{ACAD_REACTORS
330
78C
102
}
330
78C
100
AcDbXrecord
280
     1
102
RTVSPropertyOp0
 70
     1
102
RTVSPropertyOp1
 70
     1
102
RTVSPropertyOp2
 70
     1
102
RTVSPropertyOp3
 70
     1
102
RTVSPropertyOp4
 70
     1
102
RTVSPropertyOp5
 70
     1
102
RTVSPropertyOp6
 70
     1
102
RTVSPropertyOp7
 70
     1
102
RTVSPropertyOp8
 70
     1
102
RTVSPropertyOp9
 70
     1
102
RTVSPropertyOp10
 70
     1
102
RTVSPropertyOp11
 70
     1
102
RTVSPropertyOp12
 70
     1
102
RTVSPropertyOp13
 70
     1
102
RTVSPropertyOp14
 70
     1
102
RTVSPropertyOp15
 70
     1
102
RTVSPropertyOp16
 70
     1
102
RTVSPropertyOp17
 70
     1
102
RTVSPropertyOp18
 70
     1
102
RTVSPropertyOp19
 70
     1
102
RTVSPropertyOp20
 70
     1
102
RTVSPropertyOp21
 70
     1
102
RTVSPropertyOp22
 70
     1
102
RTVSPropertyOp23
 70
     1
102
RTVSPropertyOp24
 70
     1
102
RTVSPropertyOp25
 70
     1
102
RTVSPropertyOp26
 70
     1
102
RTVSPropertyOp27
 70
     1
102
RTVSPropertyOp28
 70
     1
102
RTVSPropertyOp29
 70
     1
102
RTVSPropertyOp30
 70
     1
102
RTVSPropertyOp31
 70
     1
102
RTVSPropertyOp32
 70
     1
  0
XRECORD
  5
78F
102
{ACAD_REACTORS
330
78E
102
}
330
78E
100
AcDbXrecord
280
     1
102
RTVSPropertyOp0
 70
     1
102
RTVSPropertyOp1
 70
     1
102
RTVSPropertyOp2
 70
     1
102
RTVSPropertyOp3
 70
     1
102
RTVSPropertyOp4
 70
     1
102
RTVSPropertyOp5
 70
     1
102
RTVSPropertyOp6
 70
     1
102
RTVSPropertyOp7
 70
     1
102
RTVSPropertyOp8
 70
     1
102
RTVSPropertyOp9
 70
     1
102
RTVSPropertyOp10
 70
     1
102
RTVSPropertyOp11
 70
     1
102
RTVSPropertyOp12
 70
     1
102
RTVSPropertyOp13
 70
     1
102
RTVSPropertyOp14
 70
     1
102
RTVSPropertyOp15
 70
     1
102
RTVSPropertyOp16
 70
     1
102
RTVSPropertyOp17
 70
     1
102
RTVSPropertyOp18
 70
     1
102
RTVSPropertyOp19
 70
     1
102
RTVSPropertyOp20
 70
     1
102
RTVSPropertyOp21
 70
     1
102
RTVSPropertyOp22
 70
     1
102
RTVSPropertyOp23
 70
     1
102
RTVSPropertyOp24
 70
     1
102
RTVSPropertyOp25
 70
     1
102
RTVSPropertyOp26
 70
     1
102
RTVSPropertyOp27
 70
     1
102
RTVSPropertyOp28
 70
     1
102
RTVSPropertyOp29
 70
     1
102
RTVSPropertyOp30
 70
     1
102
RTVSPropertyOp31
 70
     1
102
RTVSPropertyOp32
 70
     1
  0
XRECORD
  5
791
102
{ACAD_REACTORS
330
790
102
}
330
790
100
AcDbXrecord
280
     1
102
RTVSPropertyOp0
 70
     1
102
RTVSPropertyOp1
 70
     1
102
RTVSPropertyOp2
 70
     1
102
RTVSPropertyOp3
 70
     1
102
RTVSPropertyOp4
 70
     1
102
RTVSPropertyOp5
 70
     1
102
RTVSPropertyOp6
 70
     1
102
RTVSPropertyOp7
 70
     1
102
RTVSPropertyOp8
 70
     1
102
RTVSPropertyOp9
 70
     1
102
RTVSPropertyOp10
 70
     1
102
RTVSPropertyOp11
 70
     1
102
RTVSPropertyOp12
 70
     1
102
RTVSPropertyOp13
 70
     1
102
RTVSPropertyOp14
 70
     1
102
RTVSPropertyOp15
 70
     1
102
RTVSPropertyOp16
 70
     1
102
RTVSPropertyOp17
 70
     1
102
RTVSPropertyOp18
 70
     1
102
RTVSPropertyOp19
 70
     1
102
RTVSPropertyOp20
 70
     1
102
RTVSPropertyOp21
 70
     1
102
RTVSPropertyOp22
 70
     1
102
RTVSPropertyOp23
 70
     1
102
RTVSPropertyOp24
 70
     1
102
RTVSPropertyOp25
 70
     1
102
RTVSPropertyOp26
 70
     1
102
RTVSPropertyOp27
 70
     1
102
RTVSPropertyOp28
 70
     1
102
RTVSPropertyOp29
 70
     1
102
RTVSPropertyOp30
 70
     1
102
RTVSPropertyOp31
 70
     1
102
RTVSPropertyOp32
 70
     1
  0
XRECORD
  5
7A5
102
{ACAD_REACTORS
330
7A4
102
}
330
7A4
100
AcDbXrecord
280
     1
102
RTVSPropertyOp0
 70
     1
102
RTVSPropertyOp1
 70
     1
102
RTVSPropertyOp2
 70
     1
102
RTVSPropertyOp3
 70
     1
102
RTVSPropertyOp4
 70
     1
102
RTVSPropertyOp5
 70
     1
102
RTVSPropertyOp6
 70
     1
102
RTVSPropertyOp7
 70
     1
102
RTVSPropertyOp8
 70
     1
102
RTVSPropertyOp9
 70
     1
102
RTVSPropertyOp10
 70
     1
102
RTVSPropertyOp11
 70
     1
102
RTVSPropertyOp12
 70
     1
102
RTVSPropertyOp13
 70
     1
102
RTVSPropertyOp14
 70
     1
102
RTVSPropertyOp15
 70
     1
102
RTVSPropertyOp16
 70
     1
102
RTVSPropertyOp17
 70
     1
102
RTVSPropertyOp18
 70
     1
102
RTVSPropertyOp19
 70
     1
102
RTVSPropertyOp20
 70
     1
102
RTVSPropertyOp21
 70
     1
102
RTVSPropertyOp22
 70
     1
102
RTVSPropertyOp23
 70
     1
102
RTVSPropertyOp24
 70
     1
102
RTVSPropertyOp25
 70
     1
102
RTVSPropertyOp26
 70
     1
102
RTVSPropertyOp27
 70
     1
102
RTVSPropertyOp28
 70
     1
102
RTVSPropertyOp29
 70
     1
102
RTVSPropertyOp30
 70
     1
102
RTVSPropertyOp31
 70
     1
102
RTVSPropertyOp32
 70
     1
  0
XRECORD
  5
79B
102
{ACAD_REACTORS
330
79A
102
}
330
79A
100
AcDbXrecord
280
     1
102
RTVSPropertyOp0
 70
     1
102
RTVSPropertyOp1
 70
     1
102
RTVSPropertyOp2
 70
     1
102
RTVSPropertyOp3
 70
     1
102
RTVSPropertyOp4
 70
     1
102
RTVSPropertyOp5
 70
     1
102
RTVSPropertyOp6
 70
     1
102
RTVSPropertyOp7
 70
     1
102
RTVSPropertyOp8
 70
     1
102
RTVSPropertyOp9
 70
     1
102
RTVSPropertyOp10
 70
     1
102
RTVSPropertyOp11
 70
     1
102
RTVSPropertyOp12
 70
     1
102
RTVSPropertyOp13
 70
     1
102
RTVSPropertyOp14
 70
     1
102
RTVSPropertyOp15
 70
     1
102
RTVSPropertyOp16
 70
     1
102
RTVSPropertyOp17
 70
     1
102
RTVSPropertyOp18
 70
     1
102
RTVSPropertyOp19
 70
     1
102
RTVSPropertyOp20
 70
     1
102
RTVSPropertyOp21
 70
     1
102
RTVSPropertyOp22
 70
     1
102
RTVSPropertyOp23
 70
     1
102
RTVSPropertyOp24
 70
     1
102
RTVSPropertyOp25
 70
     1
102
RTVSPropertyOp26
 70
     1
102
RTVSPropertyOp27
 70
     1
102
RTVSPropertyOp28
 70
     1
102
RTVSPropertyOp29
 70
     1
102
RTVSPropertyOp30
 70
     1
102
RTVSPropertyOp31
 70
     1
102
RTVSPropertyOp32
 70
     1
  0
XRECORD
  5
7A3
102
{ACAD_REACTORS
330
7A2
102
}
330
7A2
100
AcDbXrecord
280
     1
102
RTVSPropertyOp0
 70
     1
102
RTVSPropertyOp1
 70
     1
102
RTVSPropertyOp2
 70
     1
102
RTVSPropertyOp3
 70
     1
102
RTVSPropertyOp4
 70
     1
102
RTVSPropertyOp5
 70
     1
102
RTVSPropertyOp6
 70
     1
102
RTVSPropertyOp7
 70
     1
102
RTVSPropertyOp8
 70
     1
102
RTVSPropertyOp9
 70
     1
102
RTVSPropertyOp10
 70
     1
102
RTVSPropertyOp11
 70
     1
102
RTVSPropertyOp12
 70
     1
102
RTVSPropertyOp13
 70
     1
102
RTVSPropertyOp14
 70
     1
102
RTVSPropertyOp15
 70
     1
102
RTVSPropertyOp16
 70
     1
102
RTVSPropertyOp17
 70
     1
102
RTVSPropertyOp18
 70
     1
102
RTVSPropertyOp19
 70
     1
102
RTVSPropertyOp20
 70
     1
102
RTVSPropertyOp21
 70
     1
102
RTVSPropertyOp22
 70
     1
102
RTVSPropertyOp23
 70
     1
102
RTVSPropertyOp24
 70
     1
102
RTVSPropertyOp25
 70
     1
102
RTVSPropertyOp26
 70
     1
102
RTVSPropertyOp27
 70
     1
102
RTVSPropertyOp28
 70
     1
102
RTVSPropertyOp29
 70
     1
102
RTVSPropertyOp30
 70
     1
102
RTVSPropertyOp31
 70
     1
102
RTVSPropertyOp32
 70
     1
  0
ENDSEC
  0
EOF
